<?xml version="1.0" standalone="no"?>
<!DOCTYPE svg PUBLIC "-//W3C//DTD SVG 1.1//EN" "http://www.w3.org/Graphics/SVG/1.1/DTD/svg11.dtd" >
<svg xmlns="http://www.w3.org/2000/svg" xmlns:xlink="http://www.w3.org/1999/xlink" version="1.1">
<metadata>
Created by FontForge 20170924 at Fri Sep  4 16:30:42 2020
 By www-data
</metadata>
<defs>
<font id="fontawesome-pro" horiz-adv-x="512" >
  <font-face 
    font-family="Font Awesome 5 Pro"
    font-weight="300"
    font-stretch="normal"
    units-per-em="512"
    panose-1="2 0 4 3 0 0 0 0 0 0"
    ascent="409"
    descent="-103"
    bbox="-0.075 -103.05 640.013 448.06"
    underline-thickness="0"
    underline-position="0"
    unicode-range="U+F005-F0044"
  />
<missing-glyph horiz-adv-x="0" 
 />
    <glyph glyph-name=".notdef" horiz-adv-x="0" 
 />
    <glyph glyph-name=".notdef" horiz-adv-x="0" 
 />
    <glyph glyph-name=".notdef" horiz-adv-x="0" 
 />
    <glyph glyph-name=".notdef" horiz-adv-x="0" 
 />
    <glyph glyph-name=".notdef" horiz-adv-x="0" 
 />
    <glyph glyph-name=".notdef" horiz-adv-x="0" 
 />
    <glyph glyph-name=".notdef" horiz-adv-x="0" 
 />
    <glyph glyph-name="angle-down" unicode="&#xf107;" horiz-adv-x="256" 
d="M119.5 121.1l-116 117.8c-4.7 4.7 -4.7 12.3 0 17l7.1 7.1c4.7 4.7 12.3 4.7 17 0l100.4 -102.3l100.4 102.2c4.7 4.7 12.3 4.7 17 0l7.1 -7.1c4.7 -4.7 4.7 -12.3 0 -17l-116 -117.8c-4.7 -4.6 -12.3 -4.6 -17 0.1z" />
    <glyph glyph-name="angle-left" unicode="&#xf104;" horiz-adv-x="192" 
d="M25.1 200.5l117.8 116c4.7 4.7 12.3 4.7 17 0l7.1 -7.1c4.7 -4.7 4.7 -12.3 0 -17l-102.3 -100.4l102.2 -100.4c4.7 -4.7 4.7 -12.3 0 -17l-7.1 -7.1c-4.7 -4.7 -12.3 -4.7 -17 0l-117.8 116c-4.6 4.7 -4.6 12.3 0.1 17z" />
    <glyph glyph-name="angle-right" unicode="&#xf105;" horiz-adv-x="192" 
d="M166.9 183.5l-117.8 -116c-4.7 -4.7 -12.3 -4.7 -17 0l-7.1 7.1c-4.7 4.7 -4.7 12.3 0 17l102.3 100.4l-102.2 100.4c-4.7 4.7 -4.7 12.3 0 17l7.1 7.1c4.7 4.7 12.3 4.7 17 0l117.8 -116c4.6 -4.7 4.6 -12.3 -0.1 -17z" />
    <glyph glyph-name="angle-up" unicode="&#xf106;" horiz-adv-x="256" 
d="M136.5 262.9l116 -117.8c4.7 -4.7 4.7 -12.3 0 -17l-7.1 -7.1c-4.7 -4.7 -12.3 -4.7 -17 0l-100.4 102.3l-100.4 -102.2c-4.7 -4.7 -12.3 -4.7 -17 0l-7.1 7.1c-4.7 4.7 -4.7 12.3 0 17l116 117.8c4.7 4.6 12.3 4.6 17 -0.1z" />
    <glyph glyph-name="arrows-alt" unicode="&#xf0b2;" 
d="M322.469 68.44l-50.469 0.002v107.558h107.556l-0.003 -50.467c0 -29.287 35.534 -44.064 56.284 -23.314l66.506 66.467c12.875 12.875 12.877 33.751 0 46.627l-66.499 66.466c-20.709 20.709 -56.284 6.032 -56.284 -23.314l-0.002 -50.465h-107.558v107.556
l50.463 -0.003c29.287 0 44.064 35.534 23.314 56.284l-66.467 66.506c-12.875 12.875 -33.751 12.877 -46.627 0l-66.466 -66.499c-20.709 -20.709 -6.032 -56.284 23.314 -56.284l50.469 -0.002v-107.558h-107.556l0.003 50.467c0 29.287 -35.533 44.064 -56.284 23.314
l-66.506 -66.467c-12.875 -12.875 -12.877 -33.751 0 -46.628l66.499 -66.466c20.709 -20.709 56.284 -6.032 56.284 23.314l0.002 50.466h107.558v-107.556l-50.463 0.003c-29.287 0 -44.064 -35.534 -23.314 -56.284l66.467 -66.506
c12.875 -12.875 33.751 -12.877 46.627 0l66.466 66.499c20.709 20.709 6.032 56.284 -23.314 56.284zM415.45 261.375l66.493 -66.46c0.667471 -0.66594 1.20919 -1.97164 1.20919 -2.9145c0 -0.94012 -0.539027 -2.24313 -1.20319 -2.9085l-66.512 -66.473
c-2.61 -2.609 -7.036 -0.746 -7.036 2.914l0.007 132.932c0.002 3.656 4.428 5.524 7.042 2.91zM189.531 344.41c-3.655 0 -5.523 4.426 -2.909 7.041l66.46 66.493c0.66594 0.667471 1.97164 1.20919 2.9145 1.20919c0.94012 0 2.24313 -0.539027 2.9085 -1.20319
l66.473 -66.512c2.609 -2.61 0.746 -7.036 -2.914 -7.036zM96.55 122.625l-66.493 66.46c-0.667471 0.66594 -1.20919 1.97164 -1.20919 2.9145c0 0.94012 0.539027 2.24313 1.20319 2.9085l66.512 66.473c2.61 2.609 7.036 0.746 7.036 -2.914l-0.007 -132.932
c-0.002 -3.656 -4.428 -5.524 -7.042 -2.91zM253.095 -33.95l-66.473 66.512c-2.609 2.61 -0.746 7.036 2.914 7.036l132.932 -0.007c3.655 0 5.523 -4.426 2.909 -7.041l-66.46 -66.493c-0.665749 -0.667929 -1.97144 -1.21002 -2.9145 -1.21002
c-0.939853 0 -2.24241 0.538951 -2.9075 1.20302z" />
    <glyph glyph-name="ballot-check" unicode="&#xf733;" horiz-adv-x="448" 
d="M112 16h32c17.7 0 32 14.4 32 32v32c0 17.6 -14.3 32 -32 32h-32c-17.7 0 -32 -14.4 -32 -32v-32c0 -17.6 14.3 -32 32 -32zM112 80h32v-32h-32v32zM112 272h32c17.7 0 32 14.4 32 32v32c0 17.6 -14.3 32 -32 32h-32c-17.7 0 -32 -14.4 -32 -32v-32
c0 -17.6 14.3 -32 32 -32zM112 336h32v-32h-32v32zM416 448h-384c-17.7 0 -32 -14.4 -32 -32v-448c0 -17.6 14.3 -32 32 -32h384c17.7 0 32 14.4 32 32v448c0 17.6 -14.3 32 -32 32zM416 -32h-384v448h384v-448zM216 304h128c4.4 0 8 3.6 8 8v16c0 4.4 -3.6 8 -8 8h-128
c-4.4 0 -8 -3.6 -8 -8v-16c0 -4.4 3.6 -8 8 -8zM216 176h128c4.4 0 8 3.6 8 8v16c0 4.4 -3.6 8 -8 8h-128c-4.4 0 -8 -3.6 -8 -8v-16c0 -4.4 3.6 -8 8 -8zM216 48h128c4.4 0 8 3.6 8 8v16c0 4.4 -3.6 8 -8 8h-128c-4.4 0 -8 -3.6 -8 -8v-16c0 -4.4 3.6 -8 8 -8zM118.6 161.6
c2.1 -2.1 5.5 -2.1 7.6 0l64.2 63.6c2.1 2.1 2.1 5.5 0 7.6l-12.6 12.7c-2.1 2.1 -5.5 2.1 -7.6 0l-47.6 -47.2l-20.6 20.9c-2.1 2.1 -5.5 2.1 -7.6 0l-12.7 -12.6c-2.1 -2.1 -2.1 -5.5 0 -7.6z" />
    <glyph glyph-name="bed" unicode="&#xf236;" horiz-adv-x="640" 
d="M144 128c44.11 0 80 35.89 80 80s-35.89 80 -80 80s-80 -35.89 -80 -80s35.89 -80 80 -80zM144 256c26.47 0 48 -21.53 48 -48s-21.53 -48 -48 -48s-48 21.53 -48 48s21.53 48 48 48zM528 288h-256c-8.84 0 -16 -7.16 -16 -16v-176h-224v280c0 4.42 -3.58 8 -8 8h-16
c-4.42 0 -8 -3.58 -8 -8v-368c0 -4.42 3.58 -8 8 -8h16c4.42 0 8 3.58 8 8v56h576v-56c0 -4.42 3.58 -8 8 -8h16c4.42 0 8 3.58 8 8v168c0 61.86 -50.14 112 -112 112zM608 96h-320v160h240c44.11 0 80 -35.89 80 -80v-80z" />
    <glyph glyph-name="books" unicode="&#xf5db;" horiz-adv-x="576" 
d="M575.33 -8.43l-176.33 448.41c-1.72 4.92 -6.39 8.02 -11.35 8.02c-3.01 0 -4.97 -1.03 -11.49 -3.31c-6.46 -2.26 -9.82 -8.24 -6.27 -18.38c-16.46 -9.69 -59.15 -24.09 -75.5 -26.42c-1.33 3.78 -1.97 6.62 -6.4 9.23v6.88c0 17.67 -14.33 32 -32 32h-96
c-5.96 0 -11.22 -2.07 -16 -4.9c-4.77 2.83 -10.03 4.9 -15.99 4.9h-96c-17.67 0 -32 -14.33 -32 -32v-448c0 -17.67 14.33 -32 32 -32h96c5.96 0 11.22 2.07 16 4.9c4.78 -2.84 10.04 -4.9 16 -4.9h96c17.67 0 32 14.33 32 32v361.12l151.43 -385.1
c1.73 -4.92 6.4 -8.02 11.35 -8.02c3 0 4.96 1.03 11.49 3.31c6.44 2.25 9.83 8.23 6.27 18.38c16.46 9.69 59.15 24.09 75.5 26.42c3.65 -10.4 10.13 -12.65 16.38 -10.46l7.55 2.64c6.23 2.19 9.54 9.07 7.36 15.28zM128 -32h-96v64h96v-64zM128 64h-96v256h96v-256z
M128 352h-96v64h96v-64zM256 -32h-96v64h96v-64zM256 64h-96v256h96v-256zM256 352h-96v64h96v-64zM459.15 -15.54l-155.36 388.66c25.22 4.74 64.01 20.33 75.5 26.42l155.36 -388.65c-25.23 -4.75 -64.01 -20.33 -75.5 -26.43z" />
    <glyph glyph-name="bullseye" unicode="&#xf140;" horiz-adv-x="496" 
d="M248 356c-90.65 0 -164 -73.36 -164 -164c0 -90.65 73.36 -164 164 -164c90.65 0 164 73.36 164 164c0 90.65 -73.36 164 -164 164zM248 60c-72.79 0 -132 59.21 -132 132c0 72.79 59.21 132 132 132c72.79 0 132 -59.21 132 -132s-59.21 -132 -132 -132zM248 272
c-44.11 0 -80 -35.89 -80 -80s35.89 -80 80 -80s80 35.89 80 80s-35.89 80 -80 80zM248 144c-26.47 0 -48 21.53 -48 48s21.53 48 48 48c26.47 0 48 -21.53 48 -48s-21.53 -48 -48 -48zM248 440c-136.97 0 -248 -111.03 -248 -248s111.03 -248 248 -248
c136.97 0 248 111.03 248 248c0 136.97 -111.03 248 -248 248zM248 -24c-119.1 0 -216 96.9 -216 216c0 119.1 96.9 216 216 216c119.1 0 216 -96.9 216 -216s-96.9 -216 -216 -216z" />
    <glyph glyph-name="calculator" unicode="&#xf1ec;" horiz-adv-x="448" 
d="M80 0h288c8.84 0 16 7.16 16 16v192c0 8.84 -7.16 16 -16 16h-288c-8.84 0 -16 -7.16 -16 -16v-192c0 -8.84 7.16 -16 16 -16zM288 96v96h64v-160h-64v64zM192 192h64v-64h-64v64zM192 96h64v-64h-64v64zM96 192h64v-64h-64v64zM96 96h64v-64h-64v64zM400 448h-352
c-25.6 0 -48 -22.4 -48 -48v-416c0 -25.6 22.4 -48 48 -48h352c25.6 0 48 22.4 48 48v416c0 25.6 -22.4 48 -48 48zM416 -16c0 -7.93 -8.07 -16 -16 -16h-352c-7.93 0 -16 8.07 -16 16v272h384v-272zM416 288h-384v112c0 7.93 8.07 16 16 16h352c7.93 0 16 -8.07 16 -16
v-112z" />
    <glyph glyph-name="calendar-alt" unicode="&#xf073;" horiz-adv-x="448" 
d="M400 384h-48v56c0 4.4 -3.6 8 -8 8h-16c-4.4 0 -8 -3.6 -8 -8v-56h-192v56c0 4.4 -3.6 8 -8 8h-16c-4.4 0 -8 -3.6 -8 -8v-56h-48c-26.5 0 -48 -21.5 -48 -48v-352c0 -26.5 21.5 -48 48 -48h352c26.5 0 48 21.5 48 48v352c0 26.5 -21.5 48 -48 48zM138.7 -32h-90.7
c-8.8 0 -16 7.2 -16 16v58.7h106.7v-74.7zM138.7 74.7h-106.7v74.7h106.7v-74.7zM32 181.3v74.7h106.7v-74.7h-106.7zM277.3 -32h-106.6v74.7h106.7v-74.7h-0.1zM277.3 74.7h-106.6v74.7h106.7v-74.7h-0.1zM170.7 181.3v74.7h106.7v-74.7h-106.7zM416 -16
c0 -8.8 -7.2 -16 -16 -16h-90.7v74.7h106.7v-58.7zM416 74.7h-106.7v74.7h106.7v-74.7zM416 181.3h-106.7v74.7h106.7v-74.7zM416 288h-384v48c0 8.8 7.2 16 16 16h352c8.8 0 16 -7.2 16 -16v-48z" />
    <glyph glyph-name="calendar-check" unicode="&#xf274;" horiz-adv-x="448" 
d="M400 384h-48v52c0 6.627 -5.373 12 -12 12h-8c-6.627 0 -12 -5.373 -12 -12v-52h-192v52c0 6.627 -5.373 12 -12 12h-8c-6.627 0 -12 -5.373 -12 -12v-52h-48c-26.51 0 -48 -21.49 -48 -48v-352c0 -26.51 21.49 -48 48 -48h352c26.51 0 48 21.49 48 48v352
c0 26.51 -21.49 48 -48 48zM48 352h352c8.822 0 16 -7.178 16 -16v-48h-384v48c0 8.822 7.178 16 16 16zM400 -32h-352c-8.822 0 -16 7.178 -16 16v272h384v-272c0 -8.822 -7.178 -16 -16 -16zM333.533 162.937l-134.791 -133.71c-4.7 -4.663 -12.288 -4.642 -16.963 0.046
l-67.358 67.552c-4.683 4.697 -4.672 12.301 0.024 16.985l8.505 8.48c4.697 4.683 12.301 4.672 16.984 -0.024l50.442 -50.587l117.782 116.837c4.709 4.671 12.313 4.641 16.985 -0.068l8.458 -8.527c4.672 -4.709 4.641 -12.313 -0.068 -16.984z" />
    <glyph glyph-name="chalkboard-teacher" unicode="&#xf51c;" horiz-adv-x="640" 
d="M608 448h-416c-17.67 0 -32 -14.33 -32 -32v-96c-53.02 0 -96 -42.98 -96 -96s42.98 -96 96 -96s96 42.98 96 96c0 41.74 -26.8 76.9 -64 90.12v101.88h416v-352h-64v64c0 17.67 -14.33 32 -32 32h-128c-17.67 0 -32 -14.33 -32 -32v-64h-46.66
c-0.59 0.94 -1.03 1.96 -1.65 2.88c-17.25 25.62 -46.67 39.11 -76.9 39.11c-27.79 -0.01 -34.77 -9.99 -66.79 -9.99c-31.97 0 -38.95 9.98 -66.79 9.98c-30.23 0 -59.65 -13.48 -76.9 -39.11c-10.3 -15.29 -16.31 -33.71 -16.31 -53.54v-37.33c0 -22.09 17.91 -40 40 -40
h240c22.09 0 40 17.91 40 40v37.33c0 6.41 -0.84 12.6 -2.04 18.67h290.04c17.67 0 32 14.33 32 32v352c0 17.67 -14.33 32 -32 32zM224 224c0 -35.29 -28.71 -64 -64 -64s-64 28.71 -64 64c0 35.29 28.71 64 64 64s64 -28.71 64 -64zM288 -24c0 -4.41 -3.59 -8 -8 -8h-240
c-4.41 0 -8 3.59 -8 8v37.33c0 12.79 3.75 25.13 10.85 35.67c10.53 15.64 29.35 24.98 50.36 24.98c21.8 0 29.99 -9.98 66.79 -9.98c36.79 0 45.01 9.98 66.79 9.98c21 0 39.83 -9.34 50.36 -24.98c7.1 -10.54 10.85 -22.88 10.85 -35.67zM512 64h-128v64h128v-64z" />
    <glyph glyph-name="chart-line" unicode="&#xf201;" 
d="M504 32h-472v344c0 4.42 -3.58 8 -8 8h-16c-4.42 0 -8 -3.58 -8 -8v-360c0 -8.84 7.16 -16 16 -16h488c4.42 0 8 3.58 8 8v16c0 4.42 -3.58 8 -8 8zM98.34 184.97c-3.12 -3.12 -3.12 -8.19 0 -11.31l11.31 -11.31c3.12 -3.12 8.19 -3.12 11.31 0l72.69 72.01
l84.69 -84.69c6.25 -6.25 16.38 -6.25 22.63 0l93.53 93.53l44.04 -44.04c4.95 -4.95 11.03 -7.16 17 -7.16c12.48 0 24.46 9.7 24.46 24.34v119.47c0 8.94 -7.25 16.19 -16.19 16.19h-119.47c-21.64 0 -32.47 -26.16 -17.17 -41.46l44.71 -44.71l-82.22 -82.22
l-84.63 84.63c-6.23 6.23 -16.32 6.25 -22.57 0.05zM362.96 320h85.04v-85.04z" />
    <glyph glyph-name="chart-pie" unicode="&#xf200;" horiz-adv-x="544" 
d="M527.79 160h-237.29l158.03 -158.03c2.66028 -2.64861 7.86604 -4.80349 11.62 -4.81c3.82 0 7.62 1.35 10.57 4.13c38.7 36.46 65.32 85.61 73.13 140.86c1.34 9.46 -6.51 17.85 -16.06 17.85zM459.88 35.88l-92.12 92.12h140.88c-8.12 -34.16 -24.96 -66 -48.76 -92.12
zM224 160v237.29c0 8.83 -7.18 16.21 -15.74 16.21c-0.69 0 -1.4 -0.05 -2.11 -0.15c-119.16 -16.84 -210.25 -120.95 -206.01 -245.72c4.33 -127.16 113.04 -231.63 239.99 -231.63c0.98 0 1.93 0.01 2.91 0.02c50.4 0.63 96.97 16.87 135.26 44.03
c7.9 5.6 8.42 17.23 1.57 24.08zM242.63 -31.98l-2.51 -0.02c-109.04 0 -204.3 91.92 -208 200.72c-3.4 100.13 64.21 187.03 159.88 209.45v-231.42l9.37 -9.37l141.84 -141.84c-30.56 -17.62 -64.96 -27.08 -100.58 -27.52zM511.96 224.8
c-8.24 119.46 -103.7 214.92 -223.16 223.16c-0.35 0.03 -0.7 0.04 -1.04 0.04c-8.66 0 -15.76 -7.45 -15.76 -16.23v-223.77h223.77c9.14 0 16.82 7.68 16.19 16.8zM304 240v174.1c89.25 -13.81 160.28 -84.85 174.1 -174.1z" />
    <glyph glyph-name="check" unicode="&#xf00c;" horiz-adv-x="448" 
d="M413.505 356.049l-280.015 -280.015l-98.995 98.995c-4.686 4.686 -12.284 4.686 -16.971 0l-11.313 -11.313c-4.686 -4.686 -4.686 -12.284 0 -16.971l118.794 -118.794c4.686 -4.686 12.284 -4.686 16.971 0l299.813 299.813c4.686 4.686 4.686 12.284 0 16.971
l-11.314 11.314c-4.686 4.686 -12.284 4.686 -16.97 -5.68434e-14z" />
    <glyph glyph-name="chevron-circle-left" unicode="&#xf137;" 
d="M504 192c0 137 -111 248 -248 248s-248 -111 -248 -248s111 -248 248 -248s248 111 248 248zM256 -24c-118.7 0 -216 96.1 -216 216c0 118.7 96.1 216 216 216c118.7 0 216 -96.1 216 -216c0 -118.7 -96.1 -216 -216 -216zM169.4 200.5l115.1 115c4.7 4.7 12.3 4.7 17 0
l7.1 -7.1c4.7 -4.7 4.7 -12.3 0 -17l-99.6 -99.4l99.5 -99.5c4.7 -4.7 4.7 -12.3 0 -17l-7.1 -7.1c-4.7 -4.7 -12.3 -4.7 -17 0l-115.1 115c-4.6 4.8 -4.6 12.4 0.1 17.1z" />
    <glyph glyph-name="chevron-circle-right" unicode="&#xf138;" 
d="M8 192c0 -137 111 -248 248 -248s248 111 248 248s-111 248 -248 248s-248 -111 -248 -248zM256 408c118.7 0 216 -96.1 216 -216c0 -118.7 -96.1 -216 -216 -216c-118.7 0 -216 96.1 -216 216c0 118.7 96.1 216 216 216zM342.6 183.5l-115.1 -115
c-4.7 -4.7 -12.3 -4.7 -17 0l-7.1 7.1c-4.7 4.7 -4.7 12.3 0 17l99.6 99.4l-99.5 99.5c-4.7 4.7 -4.7 12.3 0 17l7.1 7.1c4.7 4.7 12.3 4.7 17 0l115.1 -115c4.6 -4.8 4.6 -12.4 -0.1 -17.1z" />
    <glyph glyph-name="circle-notch" unicode="&#xf1ce;" 
d="M288 423.897v-8.169c0.00227821 -5.45191 4.34698 -10.724 9.698 -11.768c98.94 -19.385 174.302 -106.421 174.302 -211.96c0 -118.663 -96.055 -216 -216 -216c-118.663 0 -216 96.055 -216 216c0 104.534 74.546 192.509 174.297 211.978
c5.35454 1.04158 9.70148 6.3141 9.703 11.769v8.147c0 7.523 -6.845 13.193 -14.237 11.798c-115.291 -21.74 -202.399 -123.267 -201.759 -245.024c0.72 -137.052 111.477 -246.956 248.531 -246.667c136.72 0.288 247.465 111.21 247.465 247.999
c0 121.187 -86.924 222.067 -201.824 243.704c-7.369 1.388 -14.176 -4.308 -14.176 -11.807z" />
    <glyph glyph-name="clock" unicode="&#xf017;" 
d="M256 440c-137 0 -248 -111 -248 -248s111 -248 248 -248s248 111 248 248s-111 248 -248 248zM472 192c0 -118.7 -96.1 -216 -216 -216c-118.7 0 -216 96.1 -216 216c0 118.7 96.1 216 216 216c118.7 0 216 -96.1 216 -216zM323.1 103.7l-81.2 59
c-3.1 2.3 -4.9 5.9 -4.9 9.7v159.6c0 6.6 5.4 12 12 12h14c6.6 0 12 -5.4 12 -12v-146.3l70.5 -51.3c5.4 -3.9 6.5 -11.4 2.6 -16.8l-8.2 -11.3c-3.9 -5.3 -11.4 -6.5 -16.8 -2.6z" />
    <glyph glyph-name="coffee" unicode="&#xf0f4;" horiz-adv-x="576" 
d="M517.9 0h-491.8c-24.5 0 -33.1 32 -20 32h531.8c13.1 0 4.5 -32 -20 -32zM576 288.9c0.5 -53.4 -42.7 -96.9 -96 -96.9h-32v-32c0 -53 -43 -96 -96 -96h-192c-53 0 -96 43 -96 96v212c0 6.6 5.4 12 12 12h402.8c52.8 0 96.7 -42.2 97.2 -95.1zM416 352h-320v-192
c0 -35.3 28.7 -64 64 -64h192c35.3 0 64 28.7 64 64v192zM544 288c0 35.3 -28.7 64 -64 64h-32v-128h32c35.3 0 64 28.7 64 64z" />
    <glyph glyph-name="comment-alt-smile" unicode="&#xf4aa;" 
d="M448 448h-384c-35.3 0 -64 -28.7 -64 -64v-288c0 -35.3 28.7 -64 64 -64h96v-84c0 -7.1 5.8 -12 12 -12c2.4 0 4.9 0.7 7.1 2.4l124.9 93.6h144c35.3 0 64 28.7 64 64v288c0 35.3 -28.7 64 -64 64zM480 96c0 -17.6 -14.4 -32 -32 -32h-154.7l-8.5 -6.4l-92.8 -69.6v76
h-128c-17.6 0 -32 14.4 -32 32v288c0 17.6 14.4 32 32 32h384c17.6 0 32 -14.4 32 -32v-288zM331.8 210.7c-18.8 -22.1 -46.4 -34.7 -75.8 -34.7s-57 12.6 -75.8 34.6c-5.7 6.7 -15.8 7.4 -22.5 1.8c-6.8 -5.8 -7.5 -15.8 -1.8 -22.6c24.8 -29.1 61.3 -45.8 100.1 -45.8
s75.3 16.7 100.2 45.9c5.8 6.7 4.9 16.8 -1.8 22.6c-6.7 5.7 -16.8 4.9 -22.6 -1.8zM192 264c13.3 0 24 10.7 24 24s-10.7 24 -24 24s-24 -10.7 -24 -24s10.7 -24 24 -24zM320 264c13.3 0 24 10.7 24 24s-10.7 24 -24 24s-24 -10.7 -24 -24s10.7 -24 24 -24z" />
    <glyph glyph-name="comments" unicode="&#xf086;" horiz-adv-x="576" 
d="M532 61.8c27.5 27.1 44 61.1 44 98.2c0 80 -76.5 146.1 -176.2 157.9c-31.4 57.6 -105.5 98.1 -191.8 98.1c-114.9 0 -208 -71.6 -208 -160c0 -37 16.5 -71 44 -98.2c-15.3 -30.7 -37.3 -54.5 -37.7 -54.9c-6.3 -6.7 -8.1 -16.5 -4.4 -25c3.6 -8.5 12 -14 21.2 -14
c53.5 0 96.7 20.2 125.2 38.8c9.1 -2.1 18.4 -3.7 28 -4.8c31.5 -57.5 105.5 -98 191.8 -98c20.8 0 40.8 2.4 59.8 6.8c28.5 -18.5 71.6 -38.8 125.2 -38.8c9.2 0 17.5 5.5 21.2 14c3.6 8.5 1.9 18.3 -4.4 25c-0.5 0.4 -22.6 24.2 -37.9 54.9zM142.2 137l-11.4 -7.4
c-20.1 -13.1 -50.5 -28.2 -87.7 -32.5c8.8 11.3 20.2 27.6 29.5 46.4l10.4 20.8l-16.5 16.3c-15.8 15.5 -34.5 41.2 -34.5 75.4c0 70.6 79 128 176 128c97 0 176 -57.4 176 -128s-79 -128 -176 -128c-17.7 0 -35.4 2 -52.6 6zM445.2 33.6l-11.4 7.4l-13.2 -3.1
c-17.2 -4 -34.9 -6 -52.6 -6c-65.1 0 -122 25.9 -152.4 64.3c111.3 3.2 200.4 73.4 200.4 159.8c0 9.5 -1.3 18.7 -3.3 27.7c75.4 -14.5 131.3 -64.4 131.3 -123.7c0 -34.2 -18.7 -59.9 -34.5 -75.4l-16.5 -16.3l10.3 -20.7c9.4 -18.9 20.8 -35.2 29.5 -46.4
c-37.1 4.2 -67.5 19.4 -87.6 32.4zM407.4 301.3c0.1 -0.2 0.1 -0.4 0.2 -0.6c-0.1 0.2 -0.1 0.4 -0.2 0.6z" />
    <glyph glyph-name="crown" unicode="&#xf521;" horiz-adv-x="640" 
d="M536 -32h-432c-4.4 0 -8 -3.6 -8 -8v-16c0 -4.4 3.6 -8 8 -8h432c4.4 0 8 3.6 8 8v16c0 4.4 -3.6 8 -8 8zM584 288c-30.9 0 -56 -25.1 -56 -56c0 -7.6 1.5 -14.8 4.3 -21.4l-56.3 -33.8c-5.2 -3.1 -10.8 -4.6 -16.4 -4.6c-11.1 0 -21.9 5.8 -27.8 16.1l-74.4 130.2
c11.3 10.3 18.6 25 18.6 41.5c0 30.9 -25.1 56 -56 56s-56 -25.1 -56 -56c0 -16.5 7.3 -31.2 18.6 -41.4l-74.4 -130.2c-5.9 -10.4 -16.7 -16.1 -27.8 -16.1c-5.6 0 -11.3 1.5 -16.4 4.6l-56.3 33.8c2.7 6.6 4.3 13.8 4.3 21.4c0 30.9 -25.1 56 -56 56s-56 -25.2 -56 -56.1
s25.1 -56 56 -56c2 0 3.9 0.4 5.8 0.6l66.2 -176.6h384l66.2 176.6c1.9 -0.2 3.8 -0.6 5.8 -0.6c30.9 0 56 25.1 56 56s-25.1 56 -56 56zM320 384c13.2 0 24 -10.8 24 -24s-10.8 -24 -24 -24s-24 10.8 -24 24s10.8 24 24 24zM56 208c-13.2 0 -24 10.8 -24 24s10.8 24 24 24
s24 -10.8 24 -24s-10.8 -24 -24 -24zM489.8 32h-339.6l-56 149.4l53.4 -32c10 -6 21.3 -9.1 32.9 -9.1c22.9 0 44.2 12.4 55.6 32.3l75.6 132.3c2.8 -0.4 5.5 -0.8 8.4 -0.8s5.6 0.4 8.4 0.8l75.5 -132.4c11.4 -19.9 32.7 -32.2 55.6 -32.2c11.6 0 22.9 3.2 32.9 9.1
l53.4 32zM584 208c-13.2 0 -24 10.8 -24 24s10.8 24 24 24s24 -10.8 24 -24s-10.8 -24 -24 -24z" />
    <glyph glyph-name="desktop" unicode="&#xf108;" horiz-adv-x="576" 
d="M528 448h-480c-26.5 0 -48 -21.5 -48 -48v-288c0 -26.5 21.5 -48 48 -48h192l-24 -96h-72c-8.8 0 -16 -7.2 -16 -16s7.2 -16 16 -16h288c8.8 0 16 7.2 16 16s-7.2 16 -16 16h-72l-24 96h192c26.5 0 48 21.5 48 48v288c0 26.5 -21.5 48 -48 48zM249 -32l16 64h46l16 -64
h-78zM544 112c0 -8.8 -7.2 -16 -16 -16h-480c-8.8 0 -16 7.2 -16 16v288c0 8.8 7.2 16 16 16h480c8.8 0 16 -7.2 16 -16v-288z" />
    <glyph glyph-name="download" unicode="&#xf019;" 
d="M452 16c0 -11 -9 -20 -20 -20s-20 9 -20 20s9 20 20 20s20 -9 20 -20zM368 36c-11 0 -20 -9 -20 -20s9 -20 20 -20s20 9 20 20s-9 20 -20 20zM512 84v-104c0 -24.3 -19.7 -44 -44 -44h-424c-24.3 0 -44 19.7 -44 44v104c0 24.3 19.7 44 44 44h99.4l-56.4 56.4
c-25.2 25.2 -7.3 68.3 28.3 68.3h52.7v155.3c0 22.1 17.9 40 40 40h96c22.1 0 40 -17.9 40 -40v-155.3h52.7c35.6 0 53.4 -43.1 28.3 -68.3l-56.4 -56.4h99.4c24.3 0 44 -19.7 44 -44zM250.3 66.3c3.1 -3.1 8.2 -3.1 11.3 0l140.7 140.7c5 5 1.5 13.7 -5.7 13.7h-84.6v187.3
c0 4.4 -3.6 8 -8 8h-96c-4.4 0 -8 -3.6 -8 -8v-187.3h-84.7c-7.1 0 -10.7 -8.6 -5.7 -13.7zM480 84c0 6.6 -5.4 12 -12 12h-131.4l-52.3 -52.3c-15.6 -15.6 -41 -15.6 -56.6 0l-52.3 52.3h-131.4c-6.6 0 -12 -5.4 -12 -12v-104c0 -6.6 5.4 -12 12 -12h424
c6.6 0 12 5.4 12 12v104z" />
    <glyph glyph-name="dumbbell" unicode="&#xf44b;" horiz-adv-x="640" 
d="M632 208h-24v96c0 26.5 -21.5 48 -48 48h-32c-5.6 0 -11 -1.2 -16 -2.9v18.9c0 26.5 -21.5 48 -48 48h-32c-26.5 0 -48 -21.5 -48 -48v-160h-128v160c0 26.5 -21.5 48 -48 48h-32c-26.5 0 -48 -21.5 -48 -48v-18.9c-5 1.8 -10.4 2.9 -16 2.9h-32
c-26.5 0 -48 -21.5 -48 -48v-96h-24c-4.4 0 -8 -3.6 -8 -8v-16c0 -4.4 3.6 -8 8 -8h24v-96c0 -26.5 21.5 -48 48 -48h32c5.6 0 11 1.2 16 2.9v-18.9c0 -26.5 21.5 -48 48 -48h32c26.5 0 48 21.5 48 48v160h128v-160c0 -26.5 21.5 -48 48 -48h32c26.5 0 48 21.5 48 48v18.9
c5 -1.8 10.4 -2.9 16 -2.9h32c26.5 0 48 21.5 48 48v96h24c4.4 0 8 3.6 8 8v16c0 4.4 -3.6 8 -8 8zM112 64h-32c-8.8 0 -16 7.2 -16 16v224c0 8.8 7.2 16 16 16h32c8.8 0 16 -7.2 16 -16v-224c0 -8.8 -7.2 -16 -16 -16zM224 16c0 -8.8 -7.2 -16 -16 -16h-32
c-8.8 0 -16 7.2 -16 16v352c0 8.8 7.2 16 16 16h32c8.8 0 16 -7.2 16 -16v-352zM480 16c0 -8.8 -7.2 -16 -16 -16h-32c-8.8 0 -16 7.2 -16 16v352c0 8.8 7.2 16 16 16h32c8.8 0 16 -7.2 16 -16v-352zM576 80c0 -8.8 -7.2 -16 -16 -16h-32c-8.8 0 -16 7.2 -16 16v224
c0 8.8 7.2 16 16 16h32c8.8 0 16 -7.2 16 -16v-224z" />
    <glyph glyph-name="envelope" unicode="&#xf0e0;" 
d="M464 384h-416c-26.5 0 -48 -21.5 -48 -48v-288c0 -26.5 21.5 -48 48 -48h416c26.5 0 48 21.5 48 48v288c0 26.5 -21.5 48 -48 48zM48 352h416c8.8 0 16 -7.2 16 -16v-41.4c-21.9 -18.5 -53.2 -44 -150.6 -121.3c-16.9 -13.4 -50.2 -45.7 -73.4 -45.3
c-23.2 -0.4 -56.6 31.9 -73.4 45.3c-97.4 77.3 -128.7 102.8 -150.6 121.3v41.4c0 8.8 7.2 16 16 16zM464 32h-416c-8.8 0 -16 7.2 -16 16v205c22.8 -18.7 58.8 -47.6 130.7 -104.7c20.5 -16.4 56.7 -52.5 93.3 -52.3c36.4 -0.3 72.3 35.5 93.3 52.3
c71.9 57.1 107.9 86 130.7 104.7v-205c0 -8.8 -7.2 -16 -16 -16z" />
    <glyph glyph-name="fish" unicode="&#xf578;" horiz-adv-x="640" 
d="M363.44 368c-99.96 0 -187.27 -60.25 -235.86 -111.79l-97.04 72.66c-3.65 2.73 -7.78 3.94 -11.8 3.94c-10.85 0 -20.87 -8.78 -18.36 -20.06l26.89 -120.75l-26.88 -120.74c-2.51 -11.28 7.52 -20.06 18.36 -20.06c4.02 0 8.15 1.21 11.8 3.94l97.04 72.66
c48.58 -51.55 135.89 -111.8 235.85 -111.8c152.74 0 276.56 140.8 276.56 176s-123.82 176 -276.56 176zM363.44 48c-86.02 0 -166.21 52.56 -212.57 101.74l-19.6 20.79l-22.87 -17.12l-68.33 -51.17l18.43 82.8l1.55 6.95l-1.55 6.95l-18.43 82.8l68.33 -51.17
l22.87 -17.12l19.6 20.79c46.36 49.2 126.55 101.76 212.57 101.76c125.56 0 232.42 -111.33 244.06 -144c-11.64 -32.67 -118.5 -144 -244.06 -144zM448 216c-13.25 0 -24 -10.74 -24 -24c0 -13.25 10.75 -24 24 -24s24 10.75 24 24c0 13.26 -10.75 24 -24 24z" />
    <glyph glyph-name="frosty-head" unicode="&#xf79b;" horiz-adv-x="384" 
d="M376 224h-56v192c0 17.7 -14.3 32 -32 32h-192c-17.7 0 -32 -14.3 -32 -32v-192h-56c-4.4 0 -8 -3.6 -8 -8v-16c0 -4.4 3.6 -8 8 -8h37.5c-18.5 -28 -29.5 -61.5 -29.5 -97.7c0 -62.8 32.8 -117.5 82 -148.8c10.7 -6.8 23.6 -9.5 36.2 -9.5h21.6
c-4.4 6.3 -11.8 17 -20.8 32h-0.7c-5.5 0 -13.2 0.8 -19 4.5c-42.2 26.8 -67.3 72.3 -67.3 121.8c0 37.9 14.9 72 38.8 97.7h211.7c17.6 -19.5 30.2 -43.7 35.1 -70.4c10.3 -57.1 -12.6 -112.9 -59.7 -145.7c-7.4 -5.1 -15.9 -7.8 -24.8 -7.8c-9 -15 -16.5 -25.7 -20.8 -32
h20.8c15.4 0 30.5 4.8 43.1 13.6c53.9 37.6 86.1 104.1 72.8 177.7c-4.3 23.6 -13.9 45.3 -26.9 64.7h37.9c4.4 0 8 3.6 8 8v16c0 4.3 -3.6 7.9 -8 7.9zM288 224h-192v64h192v-64zM288 320h-192v96h192v-96zM245.3 42.7c0 29.4 -23.9 53.3 -53.3 53.3
s-53.3 -23.9 -53.3 -53.3c0 -27.6 39.2 -82.3 53.3 -102.8c14.2 20.5 53.3 75.2 53.3 102.8zM192 64c11.8 0 21.3 -9.6 21.3 -21.3c0 -6.7 -9.7 -26 -21.3 -45.2c-11.6 19.1 -21.3 38.5 -21.3 45.2c0 11.7 9.5 21.3 21.3 21.3zM256 96c11.8 0 21.3 9.6 21.3 21.3
c0 11.8 -9.6 21.3 -21.3 21.3c-11.8 0 -21.3 -9.6 -21.3 -21.3s9.5 -21.3 21.3 -21.3zM149.3 117.3c0 11.8 -9.6 21.3 -21.3 21.3c-11.8 0 -21.3 -9.6 -21.3 -21.3c0 -11.8 9.6 -21.3 21.3 -21.3c11.8 0 21.3 9.6 21.3 21.3z" />
    <glyph glyph-name="gift" unicode="&#xf06b;" 
d="M464 304h-39.3c9.5 13.4 15.3 29.9 15.3 48c0 44.1 -33.4 80 -74.5 80c-42.3 0 -66.8 -25.4 -109.5 -95.8c-42.7 70.4 -67.2 95.8 -109.5 95.8c-41.1 0 -74.5 -35.9 -74.5 -80c0 -18.1 5.8 -34.6 15.3 -48h-39.3c-26.5 0 -48 -21.5 -48 -48v-96c0 -8.8 7.2 -16 16 -16h16
v-144c0 -26.5 21.5 -48 48 -48h352c26.5 0 48 21.5 48 48v144h16c8.8 0 16 7.2 16 16v96c0 26.5 -21.5 48 -48 48zM276.2 307.6c49.5 83.3 66 92.4 89.3 92.4c23.4 0 42.5 -21.5 42.5 -48s-19.1 -48 -42.5 -48h-91.5zM146.5 400c23.4 0 39.8 -9.1 89.3 -92.4l2.1 -3.6h-91.5
c-23.4 0 -42.5 21.5 -42.5 48c0.1 26.5 19.2 48 42.6 48zM192 -16h-112c-8.8 0 -16 7.2 -16 16v144h128v-160zM192 176h-160v80c0 8.8 7.2 16 16 16h144v-96zM288 -16h-64v288h64v-288zM448 0c0 -8.8 -7.2 -16 -16 -16h-112v160h128v-144zM480 176h-160v96h144
c8.8 0 16 -7.2 16 -16v-80z" />
    <glyph glyph-name="globe-americas" unicode="&#xf57d;" horiz-adv-x="496" 
d="M248 440c-136.97 0 -248 -111.03 -248 -248s111.03 -248 248 -248c136.97 0 248 111.03 248 248c0 136.97 -111.03 248 -248 248zM463.72 186.55l-42.82 10.71c-1.97 0.5 -3.66 1.67 -4.75 3.33l-17.97 26.97c-0.737016 1.11462 -1.33517 3.10374 -1.33517 4.44
s0.598158 3.32538 1.33517 4.44l19.59 29.39c0.78 1.16 1.81 2.09 3.06 2.7l23.97 11.99c12.23 -27.05 19.2 -56.96 19.2 -88.52c0 -1.84 -0.23 -3.62 -0.28 -5.45zM32 192c0 11.92 1.22 23.53 3.09 34.93c7.16 -10.6 14.52 -21.46 19.91 -29.36
c5.88 -8.67 12.81 -16.61 21.38 -24.34c10.72 -9.69 22.56 -17.83 35.16 -24.16c13.81 -6.97 34.06 -17.95 48.28 -25.83c5.03 -2.8 8.19 -8.16 8.19 -13.97v-32.02c0 -12.81 5 -24.88 14.06 -33.94c12.66 -12.66 18.91 -31.67 17.94 -39.94v-21.81
c-96.06 21.91 -168.01 107.85 -168.01 210.44zM231.92 -23.19l-0.08 24.44c2.5 18.58 -9.44 46.98 -27.16 64.69c-2.97 2.98 -4.69 7.11 -4.69 11.31v32.02c0 17.47 -9.47 33.55 -24.72 41.97c-14.5 8.03 -35.19 19.27 -49.34 26.41c-10.06 5.05 -19.53 11.56 -28.94 20.05
c-4.88193 4.42677 -11.8528 12.4415 -15.56 17.89c-9.66 14.19 -25.54 37.72 -35.4 52.35c25.98 68.87 85.98 121.14 159.56 135.85l51.79 -51.79l-15.03 -15.03c-9.03 -9.03 -9.34 -23.53 -0.94 -32.94l-5.72 -0.03c-6.25 0 -12.19 -2.41 -16.72 -6.8l-9.91 -9.64
c-7.56 -7.3 -9.47 -18.53 -4.75 -27.95l4 -7.98c-6.94 2.75 -14.78 3.12 -22.03 0.66l-31.19 -10.39c-10.5377 -3.5048 -19.09 -15.3622 -19.09 -26.4675l1.89688e-05 -0.0325299c0 -10.66 5.91 -20.23 15.44 -25l11.09 -5.55c10.72 -5.36 22.62 -8.38 34.62 -8.8
c2.38 -2.3 6.25 -7.56 8.69 -10.89c5.91 -8.08 11.5 -15.72 19 -19.47l3.38 -1.69h70.53c4.22 0 8.34 -1.7 11.31 -4.69l13.69 -13.69c2.33418 -2.35399 4.23818 -6.95495 4.25 -10.27c0 -8.05 -3.28 -15.92 -9.06 -21.66l-11.34 -11.33
c-4.14721 -4.1792 -8.73921 -12.1894 -10.25 -17.88l-1.12 -4.41c-0.94 -3.69 -1.84 -7.38 -3.19 -11l-26.78 -72.17c-6.03 -0.51 -12.09 -0.92 -18.25 -0.92c-5.44 0.02 -10.76 0.44 -16.09 0.83zM302.74 -16.7l20.26 54.61c1.78 4.7 3.03 9.53 4.25 14.36l1.03 4.05
c0.34 1.31 1.06 2.55 4.09 5.58l9.19 9.16c11.72 11.64 18.44 27.8 18.44 44.31c0 12.25 -4.97 24.23 -13.62 32.89l-13.69 13.69c-8.94 8.94 -21.31 14.06 -33.94 14.06h-60.94c-1.91 2.23 -4.34 5.59 -6.16 8.06c-8.21 11.21 -17.53 23.93 -31.65 23.93
c-8 0 -16 1.89 -23.16 5.47l-2.34 1.17l21.91 7.3l9.28 -8.06c4.38 -3.78 9.94 -5.88 15.72 -5.88h5.66c8.38 0 16 4.25 20.41 11.39c4.41 7.12 4.81 15.86 1.06 23.34l-12.97 25.95l3.38 3.31h5.75c6.41 0 12.44 2.5 16.97 7.03l8 8c9.03 9.03 9.34 23.53 0.94 32.94
l9.41 9.41c6.03 6.05 9.38 14.08 9.38 22.62s-3.34 16.58 -9.38 22.62l-33.31 33.31c0.44 0 0.87 0.07 1.31 0.07c76.13 0 143.04 -39.68 181.52 -99.35l-22.98 -11.49c-5.24009 -2.62095 -12.1303 -8.70479 -15.38 -13.58l-19.59 -29.39c-9 -13.48 -9 -30.89 0 -44.38
l17.97 -26.97c5.53 -8.28 13.88 -14.17 23.59 -16.61l47.38 -11.84c-14.72 -83.15 -77.04 -149.87 -157.79 -171.08z" />
    <glyph glyph-name="globe-snow" unicode="&#xf7a3;" horiz-adv-x="448" 
d="M224 352c8.8 0 16 7.2 16 16s-7.2 16 -16 16s-16 -7.2 -16 -16s7.2 -16 16 -16zM112 272c0 8.8 -7.2 16 -16 16s-16 -7.2 -16 -16s7.2 -16 16 -16s16 7.2 16 16zM320 288c8.8 0 16 7.2 16 16s-7.2 16 -16 16s-16 -7.2 -16 -16s7.2 -16 16 -16zM363.3 49
c51.5 41 84.7 104 84.7 175c0 123.7 -100.3 224 -224 224s-224 -100.3 -224 -224c0 -71 33.2 -134 84.7 -175l-46.3 -61.8c-15.8 -21.1 -0.8 -51.2 25.6 -51.2h320c26.4 0 41.4 30.1 25.6 51.2zM32 224c0 105.9 86.1 192 192 192c105.9 0 192 -86.1 192 -192
c0 -66.7 -34.3 -125.6 -86.1 -160h-89.9v32h80c12.3 0 23.5 7 28.8 18.1s3.8 24.2 -3.8 33.8l-19.7 24.6c1.3 1.7 2.4 3.5 3.3 5.4c5.3 11 3.9 24.2 -3.7 33.8l-75.8 96.3c-6.1 7.7 -15.3 12.2 -25.1 12.2s-19.1 -4.5 -25.1 -12.2l-76 -96.3c-7.6 -9.6 -9 -22.8 -3.6 -33.8
c0.9 -1.9 2.1 -3.7 3.3 -5.4l-19.6 -24.5c-7.7 -9.6 -9.2 -22.8 -3.8 -33.8c5.3 -11.2 16.5 -18.2 28.8 -18.2h80v-32h-89.9c-51.8 34.4 -86.1 93.3 -86.1 160zM148 191.9l76 96.3l75.9 -96.2h-31l51.1 -64h-80v88c0 4.4 -3.6 8 -8 8h-16c-4.4 0 -8 -3.6 -8 -8v-88h-80
l51.1 64zM64 -32l48 64h224l48 -64h-320z" />
    <glyph glyph-name="handshake-alt" unicode="&#xf4c6;" horiz-adv-x="640" 
d="M238.4 271.4l83.1 76.2c3 2.7 6.8 4.2 10.8 4.2h101c4.3 0 8.3 -1.7 11.4 -4.8l60.7 -59.1h126.6c4.4 0 8 3.6 8 8v16c0 4.4 -3.6 8 -8 8h-113.5l-51.2 49.9c-9.1 9.1 -21.1 14.1 -33.9 14.1h-101c-10.4 0 -20.1 -3.9 -28.3 -10c-8.4 6.5 -18.7 10.3 -29.3 10.3h-69.5
c-12.7 0 -24.9 -5.1 -34 -14.1l-49.9 -50.1h-113.4c-4.4 0 -8 -3.6 -8 -8v-16c0 -4.4 3.6 -8 8 -8h126.6l59.3 59.3c3 3 7.1 4.7 11.3 4.7h69.5c0.9 -2.2 0.3 -0.7 1.1 -2.9l-59 -54.1c-28.2 -25.9 -29.6 -69.2 -4.2 -96.9c14.3 -15.6 58.6 -39.3 96.9 -4.2l22.8 20.9
l125.6 -101.9c6.8 -5.5 7.9 -15.7 2.3 -22.5l-9.5 -11.7c-5.4 -6.6 -15.4 -8.1 -22.5 -2.3l-17.8 14.4l-41.5 -51c-7.5 -9.3 -21 -10.2 -29.4 -3.4l-30.6 26.1l-10.4 -12.8c-16.7 -20.5 -47 -23.7 -66.6 -7.9l-89.9 86.1h-134c-4.4 0 -8 -3.6 -8 -8v-16c0 -4.4 3.6 -8 8 -8
h121.2l81.5 -78c29.8 -24.1 71.8 -23.4 101 0.2l7.2 -6.2c9.6 -7.8 21.3 -11.9 33.5 -11.9c16 0 31.1 7 41.4 19.6l21.9 26.9c16.4 -8.9 42.9 -9 60 12l9.5 11.7c6.2 7.6 9.6 16.6 10.5 25.7h136.3c4.4 0 8 3.6 8 8v16c0 4.4 -3.6 8 -8 8h-145.2c-2.5 3.5 -5.3 6.9 -8.8 9.8
l-121.9 99l28.4 26.1c6.5 6 7 16.1 1 22.6s-16.1 6.9 -22.6 1l-75.1 -68.8c-14.4 -13.1 -38.6 -12 -51.7 2.2c-13.5 14.7 -12.6 37.9 2.3 51.6z" />
    <glyph glyph-name="hiking" unicode="&#xf6ec;" horiz-adv-x="384" 
d="M376 288h-16c-4.42 0 -8 -3.58 -8 -8v-26.95c-5.03 1.79 -10.36 2.95 -16 2.95h-30.16l-43.08 55.18l-1.22 1.56l-1.4 1.4c5.11 3.04 10 6.52 14.39 10.9c13.77 13.76 21.04 31.39 21.04 50.96s-7.28 37.2 -21.04 50.96c-13.76 13.76 -31.38 21.04 -50.95 21.04
c-19.58 0 -37.2 -7.28 -50.96 -21.04s-21.04 -31.38 -21.04 -50.96c0 -18.07 6.46 -34.33 18.24 -47.57l-45.84 13.16c-44.78 10.62 -90.62 -15.75 -102 -59.09l-21.06 -81.58c-1.94 -7.5 -0.78 -15.28 3.22 -21.94c4.09 -6.83 10.66 -11.61 17.81 -13.31l80.26 -22.95
l-36.78 -147.08c-6.38 -25.73 9.31 -51.81 34.97 -58.2c3.8 -0.95 7.71 -1.43 11.61 -1.43c22.09 0 41.25 14.97 46.58 36.4l27.13 108.52l38.28 -25.9v-71.03c0 -26.47 21.53 -48 48 -48s48 21.53 48 48v79.53c0 25.75 -12.51 50.08 -33.47 65.08l-48.53 31.8l5.02 20.06
l1.52 -1.95c9.17 -11.77 22.97 -18.52 37.88 -18.52h53.58c5.64 0 10.97 1.15 16 2.95v-218.95c0 -4.42 3.58 -8 8 -8h16c4.42 0 8 3.58 8 8v336c0 4.42 -3.58 8 -8 8zM195.24 404.33c7.78 7.78 17.23 11.67 28.34 11.67s20.56 -3.89 28.33 -11.67
c7.77 -7.77 11.67 -17.23 11.67 -28.33s-3.89 -20.56 -11.67 -28.33c-7.77 -7.77 -17.23 -11.67 -28.33 -11.67c-11.11 0 -20.56 3.89 -28.33 11.67c-7.77 7.77 -11.67 17.23 -11.67 28.33s3.89 20.56 11.66 28.33zM31.92 192.91l0.12 0.45l0.22 -0.53zM32.67 195.89
l20.28 78.56c6.94 26.61 35.44 42.78 62.9 36.2l28.98 -8.32c-3.85737 -5.87823 -8.36425 -16.1867 -10.06 -23.01l-26.28 -105.1zM127.54 -19.88c-1.81 -7.28 -8.34 -12.12 -15.53 -12.12c-1.28 0 -2.56 0.16 -3.87 0.48c-8.59 2.14 -13.78 10.83 -11.66 19.39l32.8 131.2
l28.23 -19.08zM336 192h-53.59c-4.94 0 -9.59 2.28 -12.62 6.17l-41.88 53.81l-25.96 -103.86c-0.17 -0.68 -0.83 -1.01 -1.08 -1.65l67.04 -43.88c12.59 -9.02 20.09 -23.61 20.09 -39.06v-79.53c0 -8.84 -7.16 -16 -16 -16s-16 7.16 -16 16v79.53
c0 5.16 -2.5 10.03 -6.72 13.03l-104.18 70.42c-3.69599 2.64231 -6.69564 8.47415 -6.69564 13.0175c0 1.08493 0.213087 2.8198 0.47564 3.87249l26.94 107.72c4.43591 17.8904 22.9954 32.4101 41.4275 32.4101l0.072468 -6.15203e-05c11.41 0 22.12 -4.44 30.22 -12.52
l52.69 -67.48h45.77c8.84 0 16 -7.16 16 -16s-7.16 -16 -16 -16z" />
    <glyph glyph-name="hockey-sticks" unicode="&#xf454;" horiz-adv-x="640" 
d="M624 96h-213.4c-3 0 -5.8 1.7 -7.2 4.4l-29.8 59.6l118 236.2c3.9 7.9 0.7 17.5 -7.2 21.5l-57.1 28.6c-7.9 4 -17.5 0.8 -21.5 -7.2l-85.8 -171.7l-85.8 171.8c-3.9 7.9 -13.6 11.1 -21.5 7.2l-57.3 -28.6c-7.9 -4 -11.1 -13.6 -7.2 -21.5l118 -236.2l-29.8 -59.6
c-1.4 -2.7 -4.1 -4.4 -7.2 -4.4h-213.2c-8.8 0 -16 -7.2 -16 -16v-128c0 -8.8 7.2 -16 16 -16h186.3c36.4 0 69.6 20.6 85.9 53.1l31.8 63.6l31.8 -63.6c16.3 -32.5 49.5 -53.1 85.9 -53.1h186.3c8.8 0 16 7.2 16 16v127.9c0 8.8 -7.2 16 -16 16zM184.1 396.2l28.6 14.3
l89.4 -178.9l-17.9 -35.8zM32 -32v96h32v-96h-32zM259.6 3.4c-10.9 -21.8 -32.8 -35.4 -57.2 -35.4h-106.4v96h133.4c15.3 0 29 8.5 35.8 22.1l162.1 324.4l28.6 -14.3zM437.7 -32c-24.4 0 -46.3 13.6 -57.2 35.4l-42.5 85.1l17.9 35.8l19.1 -38.1
c6.8 -13.6 20.5 -22.1 35.8 -22.1h133.2v-96h-106.3v-0.1zM608 -32h-32v96h32v-96z" />
    <glyph glyph-name="home" unicode="&#xf015;" 
d="M509.8 220.5l-61.8 49.7v76c0 3.3 -2.7 6 -6 6h-20c-3.3 0 -6 -2.7 -6 -6v-50.1l-139.9 112.8c-11.7 9.5 -28.5 9.5 -40.2 0l-233.7 -188.4c-2.6 -2.1 -3 -5.9 -0.9 -8.4l12.6 -15.6c2.1 -2.6 5.9 -3 8.5 -0.9l41.6 33.5v-229c0 -17.7 14.3 -32 32 -32h116
c6.6 0 12 5.4 12 12v132.1l64 -0.3v-132.2c0 -6.6 5.4 -12 12 -12l116 0.3c17.7 0 32 14.3 32 32v229l41.6 -33.5c2.6 -2.1 6.4 -1.7 8.5 0.9l12.6 15.6c2.1 2.6 1.6 6.4 -0.9 8.5zM416 0l-96 -0.3v132.3c0 6.6 -5.4 12 -12 12l-104 0.3c-6.6 0 -12 -5.4 -12 -12v-132.3h-96
v254.9l156.2 126c2.2 1.8 5.3 1.8 7.5 0l156.2 -126v-254.9z" />
    <glyph glyph-name="info-circle" unicode="&#xf05a;" 
d="M256 408c118.621 0 216 -96.075 216 -216c0 -119.291 -96.61 -216 -216 -216c-119.244 0 -216 96.562 -216 216c0 119.203 96.602 216 216 216zM256 440c-136.957 0 -248 -111.083 -248 -248c0 -136.997 111.043 -248 248 -248s248 111.003 248 248
c0 136.917 -111.043 248 -248 248zM220 96h12v120h-12c-6.627 0 -12 5.373 -12 12v8c0 6.627 5.373 12 12 12h48c6.627 0 12 -5.373 12 -12v-140h12c6.627 0 12 -5.373 12 -12v-8c0 -6.627 -5.373 -12 -12 -12h-72c-6.627 0 -12 5.373 -12 12v8c0 6.627 5.373 12 12 12z
M256 336c-17.673 0 -32 -14.327 -32 -32s14.327 -32 32 -32s32 14.327 32 32s-14.327 32 -32 32z" />
    <glyph glyph-name="key" unicode="&#xf084;" 
d="M336 416c79.529 0 144 -64.471 144 -144s-64.471 -144 -144 -144c-18.968 0 -37.076 3.675 -53.661 10.339l-42.339 -42.339h-48v-64h-64v-64h-96v80l170.339 170.339c-6.664 16.585 -10.339 34.693 -10.339 53.661c0 79.529 64.471 144 144 144zM336 448
c-97.184 0 -176 -78.769 -176 -176c0 -15.307 1.945 -30.352 5.798 -44.947l-158.769 -158.769c-3.8797 -3.8803 -7.02869 -11.4829 -7.029 -16.97v-91.314c0 -13.255 10.745 -24 24 -24h112c13.255 0 24 10.745 24 24v40h40c13.255 0 24 10.745 24 24v40h19.314
c6.365 0 12.47 2.529 16.971 7.029l30.769 30.769c14.594 -3.853 29.639 -5.798 44.946 -5.798c97.184 0 176 78.769 176 176c0 97.184 -78.769 176 -176 176zM384 340c11.028 0 20 -8.972 20 -20s-8.972 -20 -20 -20s-20 8.972 -20 20s8.972 20 20 20zM384 368
c-26.51 0 -48 -21.49 -48 -48s21.49 -48 48 -48s48 21.49 48 48s-21.49 48 -48 48z" />
    <glyph glyph-name="laptop" unicode="&#xf109;" horiz-adv-x="640" 
d="M624 80h-48v272c0 35.3 -28.72 64 -64 64h-384c-35.28 0 -64 -28.7 -64 -64v-272h-48c-8.84 0 -16 -7.16 -16 -16v-48c0 -44.11 35.88 -80 80 -80h480c44.12 0 80 35.89 80 80v48c0 8.84 -7.16 16 -16 16zM96 352c0 17.67 14.33 32 32 32h384c17.67 0 32 -14.33 32 -32
v-272h-152.87c-4.06 0 -7.02 -3.13 -7.92 -7.09c-3.23 -14.26 -15.98 -24.91 -31.21 -24.91h-64c-15.23 0 -27.98 10.65 -31.21 24.91c-0.9 3.96 -3.86 7.09 -7.92 7.09h-152.87zM608 16c0 -26.47 -21.53 -48 -48 -48h-480c-26.47 0 -48 21.53 -48 48v32h194.75
c6.59 -18.62 24.38 -32 45.25 -32h96c20.88 0 38.66 13.38 45.25 32h194.75v-32z" />
    <glyph glyph-name="lightbulb-on" unicode="&#xf672;" horiz-adv-x="640" 
d="M41.8 113.86c-2.20958 -1.27406 -4.00286 -4.37812 -4.00286 -6.9287c0 -1.18375 0.480641 -2.97634 1.07286 -4.0013l8 -13.86c1.27406 -2.20958 4.37812 -4.00286 6.9287 -4.00286c1.18375 0 2.97634 0.480641 4.0013 1.07286l99.22 57.28
c-6.7 8.47 -12.78 17.29 -18.01 26.55zM112.33 272h-104.33c-4.42 0 -8 -3.58 -8 -8v-16c0 -4.42 3.58 -8 8 -8h106.52c-1.63 10.52 -2.17 21.23 -2.19 32zM41.8 398.15l85.16 -49.17c3.97 10.01 8.72 19.58 14.17 28.77l-83.33 48.11
c-1.02496 0.592218 -2.81755 1.07286 -4.0013 1.07286c-2.55058 0 -5.65464 -1.79328 -6.9287 -4.00286l-8 -13.86c-2.21 -3.82 -0.9 -8.71 2.93 -10.92zM598.2 398.15c2.20958 1.27406 4.00286 4.37812 4.00286 6.9287c0 1.18375 -0.480641 2.97634 -1.07286 4.0013
l-8 13.86c-1.27406 2.20958 -4.37812 4.00286 -6.9287 4.00286c-1.18375 0 -2.97634 -0.480641 -4.0013 -1.07286l-83.38 -48.14c5.44 -9.17 10.24 -18.73 14.24 -28.73zM632 272h-104c0 -10.8 -1.25 -21.45 -2.9 -32h106.9c4.42 0 8 3.58 8 8v16c0 4.42 -3.58 8 -8 8z
M598.2 113.86l-97.39 56.23c-5.25 -9.3 -11.45 -18.03 -18.13 -26.48l99.52 -57.46c3.83 -2.21 8.72 -0.9 10.93 2.93l8 13.86c2.21 3.82 0.9 8.71 -2.93 10.92zM320 384c-61.75 0 -112 -50.25 -112 -112c0 -8.84 7.16 -16 16 -16s16 7.16 16 16c0 44.11 35.88 80 80 80
c8.84 0 16 7.16 16 16c0 8.85 -7.16 16 -16 16zM320 448c-102.95 0 -176.12 -83.54 -176 -176.24c0.06 -44.28 16.5 -84.67 43.56 -115.54c25.65 -29.26 50.29 -76.91 52.44 -92.22l0.06 -75.18c0 -3.15 0.94 -6.22 2.68 -8.84l24.51 -36.84
c2.97 -4.46 7.97 -7.14 13.32 -7.14h78.85c5.36 0 10.36 2.68 13.32 7.14l24.51 36.84c1.74 2.62 2.67 5.7 2.68 8.84l0.07 75.18c2.26 15.72 26.99 63.19 52.44 92.22c27.11 30.93 43.56 71.41 43.56 115.78c0 97.2 -78.8 176 -176 176zM367.94 -6.31l-17.09 -25.69h-61.71
l-17.09 25.69l-0.01 6.31h95.9zM367.98 32h-95.97l-0.07 32h96.08zM428.38 177.32c-13.99 -15.96 -36.33 -48.1 -50.58 -81.31h-115.59c-14.26 33.22 -36.59 65.35 -50.58 81.31c-23.13 26.38 -35.5 59.84 -35.58 94.68c-0.18 76.99 60.38 144 143.95 144
c79.4 0 144 -64.6 144 -144c0 -34.85 -12.65 -68.48 -35.62 -94.68z" />
    <glyph glyph-name="link" unicode="&#xf0c1;" 
d="M301.148 53.298l-79.2 -79.19c-50.778 -50.799 -133.037 -50.824 -183.84 0c-50.799 50.778 -50.824 133.037 0 183.84l79.19 79.2c0.957489 0.957228 2.53983 2.48177 3.532 3.403c7.55 7.005 19.795 2.004 20.208 -8.286c0.193 -4.807 0.598 -9.607 1.216 -14.384
c0.481 -3.717 -0.746 -7.447 -3.397 -10.096c-16.48 -16.469 -75.142 -75.128 -75.3 -75.286c-36.738 -36.759 -36.731 -96.188 0 -132.94c36.759 -36.738 96.188 -36.731 132.94 0l79.2 79.2l0.36 0.36c36.301 36.672 36.14 96.07 -0.37 132.58
c-8.214 8.214 -17.577 14.58 -27.585 19.109c-4.566 2.066 -7.426 6.667 -7.134 11.67c0.250445 4.30955 1.51649 11.1456 2.826 15.259c2.103 6.601 9.531 9.961 15.919 7.28c15.073 -6.324 29.187 -15.62 41.435 -27.868c50.688 -50.689 50.679 -133.17 0 -183.851z
M210.852 146.852c12.248 -12.248 26.362 -21.544 41.435 -27.868c6.388 -2.68 13.816 0.68 15.919 7.28c1.30951 4.11341 2.57555 10.9494 2.826 15.259c0.292 5.003 -2.569 9.604 -7.134 11.67c-10.008 4.528 -19.371 10.894 -27.585 19.109
c-36.51 36.51 -36.671 95.908 -0.37 132.58l0.36 0.36l79.2 79.2c36.752 36.731 96.181 36.738 132.94 0c36.731 -36.752 36.738 -96.181 0 -132.94c-0.157 -0.157 -58.819 -58.817 -75.3 -75.286c-2.651 -2.65 -3.878 -6.379 -3.397 -10.096
c0.511411 -3.95512 1.05618 -10.3992 1.216 -14.384c0.413 -10.291 12.659 -15.291 20.208 -8.286c0.992374 0.921021 2.57471 2.44557 3.532 3.403l79.19 79.2c50.824 50.803 50.799 133.062 0 183.84c-50.802 50.824 -133.062 50.799 -183.84 0l-79.2 -79.19
c-50.679 -50.682 -50.688 -133.163 -2.84217e-14 -183.851z" />
    <glyph glyph-name="long-arrow-right" unicode="&#xf178;" horiz-adv-x="448" 
d="M311.03 316.485l-7.071 -7.07c-4.686 -4.686 -4.686 -12.284 0 -16.971l83.928 -83.444h-375.887c-6.627 0 -12 -5.373 -12 -12v-10c0 -6.627 5.373 -12 12 -12h375.887l-83.928 -83.444c-4.686 -4.686 -4.686 -12.284 0 -16.971l7.071 -7.07
c4.686 -4.686 12.284 -4.686 16.97 0l116.485 116c4.686 4.686 4.686 12.284 0 16.971l-116.485 115.999c-4.686 4.687 -12.284 4.687 -16.97 0z" />
    <glyph glyph-name="map-marker-alt" unicode="&#xf3c5;" horiz-adv-x="384" 
d="M192 352c-52.935 0 -96 -43.065 -96 -96s43.065 -96 96 -96s96 43.065 96 96s-43.065 96 -96 96zM192 192c-35.29 0 -64 28.71 -64 64c0 35.29 28.71 64 64 64s64 -28.71 64 -64s-28.71 -64 -64 -64zM192 448c-106.039 0 -192 -85.961 -192 -192
c0 -77.413 26.97 -99.031 172.268 -309.67c9.534 -13.772 29.929 -13.774 39.465 0c145.297 210.639 172.267 232.257 172.267 309.67c0 106.039 -85.961 192 -192 192zM192 -25.931c-139.295 201.443 -160 217.437 -160 281.931c0 42.738 16.643 82.917 46.863 113.137
s70.399 46.863 113.137 46.863s82.917 -16.643 113.137 -46.863s46.863 -70.399 46.863 -113.137c0 -64.49 -20.692 -80.47 -160 -281.931z" />
    <glyph glyph-name="mask" unicode="&#xf6fa;" horiz-adv-x="640" 
d="M320.67 384c-442.6 0 -357.57 -384 -158.46 -384c39.9 0 77.47 20.69 101.42 55.86l25.73 37.79c7.83 11.5 19.57 17.25 31.31 17.25s23.49 -5.75 31.31 -17.25l25.73 -37.79c23.95 -35.17 61.52 -55.86 101.42 -55.86c189.86 0 290.63 384 -158.46 384zM479.13 34.91
c-29.61 0 -57.92 15.61 -75.72 41.76l-25.73 37.79c-13.56 19.92 -34.34 31.34 -57 31.34c-22.67 0 -43.44 -11.42 -57 -31.34l-25.73 -37.79c-17.8 -26.15 -46.11 -41.76 -75.73 -41.76c-77.9 0 -130.22 72.55 -130.22 140.32c0 31.04 10.25 75.99 59.07 113.92
c50.48 39.22 129.87 59.94 229.6 59.94c100.06 0 179.35 -20.29 229.31 -58.66c47.95 -36.84 58.02 -81.05 58.02 -111.64c0 -68.05 -52.92 -143.88 -128.87 -143.88zM192 261.82c-46.93 0 -77.44 -29.93 -91.52 -47.89c-5.97 -7.62 -5.97 -18.78 0 -26.39
c14.08 -17.96 44.59 -47.89 91.52 -47.89s77.44 29.93 91.52 47.89c5.97 7.62 5.97 18.78 0 26.39c-14.08 17.96 -44.59 47.89 -91.52 47.89zM192 174.55c-26.83 0 -46.54 13.8 -58.82 26.18c12.28 12.38 32 26.18 58.82 26.18s46.54 -13.8 58.82 -26.18
c-12.28 -12.38 -31.99 -26.18 -58.82 -26.18zM448 261.82c-46.93 0 -77.44 -29.93 -91.52 -47.89c-5.97 -7.62 -5.97 -18.78 0 -26.39c14.08 -17.96 44.59 -47.89 91.52 -47.89s77.44 29.93 91.52 47.89c5.97 7.62 5.97 18.78 0 26.39
c-14.08 17.96 -44.59 47.89 -91.52 47.89zM448 174.55c-26.83 0 -46.54 13.8 -58.82 26.18c12.28 12.38 32 26.18 58.82 26.18c26.83 0 46.54 -13.8 58.82 -26.18c-12.28 -12.38 -31.99 -26.18 -58.82 -26.18z" />
    <glyph glyph-name="mitten" unicode="&#xf7b5;" horiz-adv-x="448" 
d="M420.9 250.4c-13.5 11.4 -30.6 17.6 -48.2 17.6c-21.9 0 -42.5 -9.5 -56.9 -26.1l-20.4 89c-15.7 69 -75.6 117.1 -145.6 117.1c-11.3 0 -22.7 -1.3 -33.8 -3.9c-80.4 -18.7 -130.7 -100 -112.2 -181.1l44.6 -195c0.4 -1.9 1.1 -3.7 1.6 -5.6
c-9.4 -3.1 -18 -11.8 -18 -22.4v-80c0 -13.3 10.7 -24 23.8 -24h303.1c13.1 0 25.2 10.7 25.2 24v80c0 11.4 -9.4 20.4 -19.9 22.9l66.4 80.4c26.6 32.2 22.2 80.2 -9.7 107.1zM352 -32h-288v64h288v-64zM406.2 163.8l-82.5 -99.8h-240.8c-1.2 3.7 -2.7 7.4 -3.6 11.3
l-44.6 195c-14.6 63.9 25 127.9 88.4 142.7c8.8 2 17.7 3.1 26.6 3.1c55.2 0 102.4 -37.9 114.8 -92.3l27.5 -120.4l7.2 -31.4l20.5 24.8l19.4 23.5c8.3 10.1 20.5 15.8 33.5 15.8c10.2 0 20 -3.6 27.9 -10.2c18.6 -15.6 21.1 -43.4 5.7 -62.1z" />
    <glyph glyph-name="palette" unicode="&#xf53f;" 
d="M112 184c-13.3 0 -24 -10.7 -24 -24s10.7 -24 24 -24s24 10.7 24 24s-10.7 24 -24 24zM144 296c-13.3 0 -24 -10.7 -24 -24s10.7 -24 24 -24s24 10.7 24 24s-10.7 24 -24 24zM256 448c-16.9 0 -34.2 -1.6 -51.7 -5c-99.4 -19.4 -179.5 -99.3 -199.1 -198.4
c-34.6 -175.1 111.2 -308.6 234.3 -308.6c8.3 0 16.5 0.6 24.6 1.9c41.2 6.4 61.4 54.6 42.5 91.7c-23.1 45.4 9.9 98.4 60.9 98.4h79.7c35.8 0 64.8 29.6 64.9 65.3c-0.5 140.8 -115 254.7 -256.1 254.7zM447.1 160h-79.7c-35.3 0 -67.4 -17.9 -85.7 -47.8
c-18.2 -29.7 -19.6 -66 -3.7 -97.2c4.9 -9.6 4.8 -21.6 -0.1 -31.3c-2.4 -4.6 -7.9 -12.6 -18.7 -14.3c-6.3 -1 -12.9 -1.5 -19.7 -1.5c-54.6 0 -114.1 31.3 -155.5 81.6c-44 53.6 -60.9 120.6 -47.4 188.7c17.1 86.6 87 156.2 173.9 173.2c15.2 3 30.5 4.5 45.5 4.5
c123.1 0 223.6 -99.9 224 -222.6c0 -18.3 -14.8 -33.3 -32.9 -33.3zM368 312c-13.3 0 -24 -10.7 -24 -24s10.7 -24 24 -24s24 10.7 24 24s-10.7 24 -24 24zM240 360c-13.3 0 -24 -10.7 -24 -24s10.7 -24 24 -24s24 10.7 24 24s-10.7 24 -24 24z" />
    <glyph glyph-name="paw" unicode="&#xf1b0;" 
d="M256 224c-79.41 0 -192 -122.76 -192 -200.25c0 -34.9 26.81 -55.75 71.74 -55.75c48.84 0 81.09 25.08 120.26 25.08c39.51 0 71.85 -25.08 120.26 -25.08c44.93 0 71.74 20.85 71.74 55.75c0 77.49 -112.59 200.25 -192 200.25zM376.26 0
c-20.3 0 -37.81 5.77 -56.35 11.88c-19.68 6.49 -40.02 13.19 -63.91 13.19c-23.65 0 -43.85 -6.67 -63.39 -13.12c-18.64 -6.15 -36.25 -11.96 -56.87 -11.96c-39.74 0.01 -39.74 17.89 -39.74 23.76c0 62.9 100.19 168.25 160 168.25s160 -105.35 160 -168.25
c0 -5.87 0 -23.75 -39.74 -23.75zM474.83 286.73c-3.57 0.86 -7.2 1.27 -10.81 1.27c-25.85 0 -51.62 -21 -60.74 -51.39c-10.4 -34.65 4.77 -68.38 33.89 -75.34c3.58 -0.86 7.2 -1.27 10.81 -1.27c25.85 0 51.62 21 60.74 51.39c10.4 34.65 -4.77 68.38 -33.89 75.34z
M478.07 220.59c-5.37 -17.89 -19.52 -28.59 -30.09 -28.59c-1.16 0 -2.29 0.13 -3.37 0.39c-3.7 0.88 -6.72 3.32 -8.98 7.25c-4.13 7.18 -4.76 17.55 -1.7 27.76c5.37 17.9 19.52 28.6 30.1 28.6c1.16 0 2.29 -0.13 3.37 -0.39c3.7 -0.88 6.72 -3.33 8.98 -7.25
c4.12 -7.18 4.76 -17.55 1.69 -27.77zM318.56 257.39c3.55 -0.93 7.15 -1.38 10.76 -1.38c27.84 0 56.22 26.82 66.7 65.25c11.84 43.42 -3.64 85.21 -34.58 93.36c-2.90491 0.7673 -7.70099 1.39004 -10.7055 1.39004l-0.0544702 -3.53889e-05
c-27.84 0 -56.22 -26.82 -66.7 -65.26c-11.84 -43.42 3.64 -85.22 34.58 -93.36zM314.85 342.32c7.42 27.2 25.58 41.68 35.83 41.68c0.91 0 1.77 -0.11 2.61 -0.33c4.13 -1.09 7.12 -5 8.9 -8.09c5.08 -8.8 8.52 -25.48 2.95 -45.91
c-7.42 -27.19 -25.57 -41.67 -35.83 -41.67c-0.91 0 -1.77 0.11 -2.62 0.33c-4.12 1.08 -7.12 4.99 -8.9 8.08c-5.07 8.81 -8.51 25.48 -2.94 45.91zM182.68 256c3.61 0 7.21 0.45 10.76 1.38c30.94 8.14 46.42 49.94 34.58 93.36c-10.48 38.44 -38.86 65.26 -66.7 65.26
c-3.61 0 -7.21 -0.45 -10.76 -1.39c-30.94 -8.14 -46.42 -49.94 -34.58 -93.36c10.48 -38.43 38.87 -65.25 66.7 -65.25zM149.8 375.58c1.78 3.09 4.78 7 8.9 8.09c0.85 0.22 1.7 0.33 2.61 0.33c10.26 0 28.41 -14.48 35.83 -41.68c5.57 -20.43 2.13 -37.11 -2.95 -45.91
c-1.78 -3.09 -4.77 -7 -8.9 -8.08c-0.85 -0.22 -1.7 -0.33 -2.61 -0.33c-10.26 0 -28.41 14.48 -35.83 41.68c-5.57 20.42 -2.13 37.1 2.95 45.9zM74.84 161.27c29.12 6.96 44.29 40.69 33.88 75.34c-9.12 30.39 -34.89 51.39 -60.74 51.39
c-3.62 0 -7.24 -0.41 -10.81 -1.27c-29.12 -6.96 -44.29 -40.69 -33.89 -75.34c9.12 -30.39 34.9 -51.39 60.74 -51.39c3.62 0 7.24 0.41 10.82 1.27zM33.93 220.6c-3.06 10.21 -2.43 20.59 1.7 27.76c2.26 3.93 5.28 6.37 8.98 7.25c1.08 0.26 2.21 0.39 3.37 0.39
c10.57 0 24.72 -10.7 30.09 -28.59c3.06 -10.21 2.43 -20.59 -1.7 -27.77c-2.26 -3.93 -5.28 -6.37 -8.98 -7.25c-1.1 -0.26 -2.2 -0.39 -3.37 -0.39c-10.57 0 -24.72 10.7 -30.09 28.6z" />
    <glyph glyph-name="place-of-worship" unicode="&#xf67f;" horiz-adv-x="576" 
d="M558.57 92.01l-110.57 52.73v29.14c0 11.24 -5.9 21.65 -15.53 27.44l-48.47 29.08v114.97c0 8.49 -3.37 16.63 -9.38 22.63l-75.31 75.31c-3.12 3.13 -7.22 4.69 -11.31 4.69s-8.19 -1.56 -11.31 -4.69l-75.32 -75.31c-6 -6 -9.37 -14.14 -9.37 -22.62v-114.98
l-48.47 -29.08c-8.57256 -5.14367 -15.53 -17.432 -15.53 -27.4293l1.78994e-06 -0.0107011v-29.15l-110.57 -52.72c-10.47 -5 -17.43 -17.9 -17.43 -32.33v-115.68c0 -4.42 3.58 -8 8 -8h16c4.42 0 8 3.58 8 8c0 0 -0.35 119.22 0 120l96 45.29v-165.29
c0 -4.42 3.58 -8 8 -8h16c4.42 0 8 3.58 8 8v229.88l64 38.4v133.09l64 64l64 -64v-133.09l64 -38.4v-229.88c0 -4.42 3.58 -8 8 -8h16c4.42 0 8 3.58 8 8v165.29l96 -45.29c0.35 -0.78 0 -120 0 -120c0 -4.42 3.58 -8 8 -8h16c4.42 0 8 3.58 8 8v115.68
c0 14.43 -6.96 27.33 -17.43 32.33zM281.71 127.7c-33.28 -3.17 -57.71 -33.02 -57.71 -66.45v-117.25c0 -4.42 3.58 -8 8 -8h16c4.42 0 8 3.58 8 8v118.2c0 15.95 10.86 30.76 26.59 33.36c20.02 3.29 37.41 -12.14 37.41 -31.56v-120c0 -4.42 3.58 -8 8 -8h16
c4.42 0 8 3.58 8 8v120c0 37.42 -32.12 67.34 -70.29 63.7z" />
    <glyph glyph-name="signal-4" unicode="&#xf68f;" horiz-adv-x="640" 
d="M208 160h-32c-4.42 0 -8 -3.58 -8 -8v-208c0 -4.42 3.58 -8 8 -8h32c4.42 0 8 3.58 8 8v208c0 4.42 -3.58 8 -8 8zM80 64h-32c-4.42 0 -8 -3.58 -8 -8v-112c0 -4.42 3.58 -8 8 -8h32c4.42 0 8 3.58 8 8v112c0 4.42 -3.58 8 -8 8zM336 256h-32c-4.42 0 -8 -3.58 -8 -8
v-304c0 -4.42 3.58 -8 8 -8h32c4.42 0 8 3.58 8 8v304c0 4.42 -3.58 8 -8 8zM464 352h-32c-4.42 0 -8 -3.58 -8 -8v-400c0 -4.42 3.58 -8 8 -8h32c4.42 0 8 3.58 8 8v400c0 4.42 -3.58 8 -8 8z" />
    <glyph glyph-name="skating" unicode="&#xf7c5;" horiz-adv-x="448" 
d="M384 448c-35.3 0 -64 -28.7 -64 -64c0 -12.7 3.8 -24.5 10.3 -34.5c-5.4 1.5 -11.1 2.5 -16.9 2.5h-169.4c-26.5 0 -48 -21.5 -48 -48s21.5 -48 48 -48h48.5c-9.02357 -11.3164 -16.8188 -32.238 -17.4 -46.7c-0.2 -4.5 0.2 -9.1 0.8 -13.5l-91 -91
c-9.1 -9.1 -14.1 -21.1 -14.1 -33.9s5 -24.9 14.1 -33.9c18.7 -18.8 49.1 -18.8 67.9 0l79.2 79.2l40 -40v-44.2c0 -26.5 21.5 -48 48 -48s48 21.5 48 48v57.4c0 16.9 -6.8 33.4 -18.8 45.3l-49.3 49.3l58.7 58.7c18.4 18.4 23.8 45.7 13.9 69.7c-1.6 3.8 -4 7 -6.2 10.3
c5.7 -1.6 11.5 -2.8 17.7 -2.8c35.3 0 64 28.7 64 64s-28.7 64.1 -64 64.1zM130.2 59.5c-6.2 -6.2 -16.4 -6.3 -22.6 0c-6.2 6.2 -6.2 16.4 0 22.6l80.8 80.8c6.7 -10.3 5.3 -8.4 21.1 -24.2zM336 265.4l-81.4 -81.4l72 -72c6 -6 9.4 -14.2 9.4 -22.6v-57.4
c0 -8.8 -7.2 -16 -16 -16s-16 7.2 -16 16v57.4l-82.9 82.9l-0.3 0.3c-0.1 0.1 -0.1 0.1 -0.2 0.1c-0.2 0.2 -0.2 0.4 -0.4 0.6c-21.4 22.6 -14.6 53.9 3.5 69.4l53.8 45.4h-133.5c-8.8 0 -16 7.2 -16 16s7.2 16 16 16h169.4c28.5 -0.1 42.7 -34.6 22.6 -54.7zM384 352
c-17.7 0 -32 14.4 -32 32s14.3 32 32 32s32 -14.4 32 -32s-14.3 -32 -32 -32zM117.8 -8.6c-6.2 -6.2 -16.4 -6.2 -22.6 0l-67.9 67.9c-6.2 6.2 -16.4 6.2 -22.6 0s-6.2 -16.4 0 -22.6l67.9 -67.9c9.3 -9.4 21.7 -14 33.9 -14s24.6 4.7 33.9 14c6.2 6.2 6.2 16.4 0 22.6
s-16.3 6.3 -22.6 1.77636e-15zM400 0c-8.8 0 -16 -7.2 -16 -16s-7.2 -16 -16 -16h-96c-8.8 0 -16 -7.2 -16 -16s7.2 -16 16 -16h96c26.5 0 48 21.5 48 48c0 8.8 -7.2 16 -16 16z" />
    <glyph glyph-name="skiing-nordic" unicode="&#xf7ca;" horiz-adv-x="576" 
d="M560 16c-8.8 0 -16 -7.2 -16 -16c0 -17.6 -14.3 -32 -32 -32h-70.7l25.7 180c17 7.4 29 24.3 29 44c0 26.5 -21.5 48 -48 48h-34.1l-21.7 44.3c-7.8 15.9 -19.2 29.6 -32.9 40.2c23.9 9.3 40.7 32.5 40.7 59.5c0 35.3 -28.7 64 -64 64s-64 -28.7 -64 -64
c0 -10 2.3 -19.5 6.4 -27.9l-29.6 8.8c-33 7.9 -67.4 0.7 -94.4 -20l-39.6 -30.4c-10.2 -7.8 -16.7 -19.1 -18.4 -31.8s1.7 -25.3 9.5 -35.5c3.6 -4.8 8.1 -8.5 12.9 -11.5l-53.5 -267.7h-49.3c-8.8 0 -16 -7.2 -16 -16s7.2 -16 16 -16h496c35.3 0 64 28.7 64 64
c0 8.8 -7.2 16 -16 16zM237.6 93.6l-55.1 -116.4c-9 -18.9 -38.1 -5.7 -28.9 13.7l57.2 120.7c8.3 -7.8 13.4 -10.1 26.8 -18zM265.3 77.2l31.9 -18.8l-23 -60c-3.1 -10.1 -2.7 -20.6 0.8 -30.4h-61.4zM368.7 127.7l-49.4 29.2l12.8 32.1l4.4 -9.1
c10.7 -21.8 33.2 -35.9 57.5 -35.9h40.1l-25.1 -176h-43.9c0.1 0.3 0.3 0.6 0.4 0.9l32.1 86.3c7.8 27.7 -4 57.5 -28.9 72.5zM336 416c17.7 0 32 -14.4 32 -32s-14.3 -32 -32 -32s-32 14.4 -32 32s14.3 32 32 32zM134.3 289.1l39.6 30.4c19.3 14.7 43.9 19.9 66.6 14.5
l71.7 -21.3c21.9 -5.6 41.1 -21.5 51.3 -42.5l30.5 -62.2h54c21.2 0 21.2 -32 0 -32h-54c-12.1 0 -23.4 7 -28.8 17.9l-36.1 73.8l-49.8 -124.5l73 -43c12.5 -7.5 18.4 -22.5 14.9 -35.1l-31.9 -85.9c-6.4 -20.7 -36.4 -9.9 -30.8 8.6l32.3 84.4l-96.7 57
c-20.7 12.2 -29.2 38.1 -19.7 60.2l44.5 103.9c-34.7 10.3 -34.7 10.8 -42.2 10.8c-10.2 0 -20.8 -3.6 -29.3 -10.1l-39.7 -30.4c-17 -12.9 -36 12.8 -19.4 25.5zM150.1 229c8.1 1 16.1 4 23.1 9.3l39.7 30.4c2.7 2.1 5.8 3.1 8.1 3.5l-30.1 -70.1
c-8.4 -19.6 -8.1 -40.9 -1 -59.7l-65.3 -137.9c-5.5 -11.6 -6.1 -24.5 -1.8 -36.6h-24.9z" />
    <glyph glyph-name="snowflake" unicode="&#xf2dc;" horiz-adv-x="448" 
d="M388.1 114.5l52.7 14.3c4.2 1.1 6.7 5.5 5.6 9.8l-4.1 15.5c-1.1 4.3 -5.5 6.8 -9.7 5.7l-83.2 -22.6l-93.8 54.8l93.8 54.8l83.2 -22.6c4.2 -1.1 8.6 1.4 9.7 5.7l4.1 15.5c1.1 4.3 -1.4 8.7 -5.6 9.8l-52.7 14.3l55.9 32.7c3.8 2.2 5.1 7.1 2.9 10.9l-7.9 13.9
c-2.2 3.8 -7 5.1 -10.8 2.9l-55.9 -32.7l14.1 53.3c1.1 4.3 -1.4 8.7 -5.6 9.8l-15.3 4.1c-4.2 1.1 -8.6 -1.4 -9.7 -5.7l-22.3 -84.2l-93.8 -54.8v109.7l61 61.6c3.1 3.1 3.1 8.2 0 11.3l-11.2 11.3c-3.1 3.1 -8.1 3.1 -11.2 0l-38.6 -39v65.4c0 4.4 -3.5 8 -7.9 8h-15.8
c-4.4 0 -7.9 -3.6 -7.9 -8v-65.4l-38.6 39c-3.1 3.1 -8.1 3.1 -11.2 0l-11.2 -11.3c-3.1 -3.1 -3.1 -8.2 0 -11.3l60.9 -61.7v-109.7l-93.8 54.8l-22.1 84.4c-1.1 4.3 -5.5 6.8 -9.7 5.7l-15.3 -4.1c-4.2 -1.1 -6.7 -5.5 -5.6 -9.8l14.1 -53.3l-55.9 32.7
c-3.8 2.2 -8.6 0.9 -10.8 -2.9l-7.9 -13.9c-2.2 -3.8 -0.9 -8.7 2.9 -10.9l55.9 -32.7l-52.6 -14.4c-4.2 -1.1 -6.7 -5.5 -5.6 -9.8l4.1 -15.5c1.1 -4.3 5.5 -6.8 9.7 -5.7l83.2 22.6l93.8 -54.8l-93.8 -54.8l-83.2 22.6c-4.2 1.1 -8.6 -1.4 -9.7 -5.7l-4.1 -15.5
c-1.1 -4.3 1.4 -8.7 5.6 -9.8l52.7 -14.3l-55.9 -32.6c-3.8 -2.2 -5.1 -7.1 -2.9 -10.9l7.9 -13.9c2.2 -3.8 7 -5.1 10.8 -2.9l55.9 32.7l-14.1 -53.3c-1.1 -4.3 1.4 -8.7 5.6 -9.8l15.3 -4.1c4.2 -1.1 8.6 1.4 9.7 5.7l22.3 84.2l93.8 54.8v-109.7l-61 -61.7
c-3.1 -3.1 -3.1 -8.2 0 -11.3l11.2 -11.3c3.1 -3.1 8.1 -3.1 11.2 0l38.6 39v-65.4c0 -4.4 3.5 -8 7.9 -8h15.8c4.4 0 7.9 3.6 7.9 8v65.4l38.6 -39c3.1 -3.1 8.1 -3.1 11.2 0l11.2 11.3c3.1 3.1 3.1 8.2 0 11.3l-60.9 61.7v109.6l93.8 -54.8l22.3 -84.2
c1.1 -4.3 5.5 -6.8 9.7 -5.7l15.3 4.1c4.2 1.1 6.7 5.5 5.6 9.8l-14.1 53.3l55.9 -32.7c3.8 -2.2 8.6 -0.9 10.8 2.9l7.9 13.9c2.2 3.8 0.9 8.7 -2.9 10.9z" />
    <glyph glyph-name="snowflakes" unicode="&#xf7cf;" horiz-adv-x="640" 
d="M527.9 328c0 -4.4 3.6 -8 8 -8h16c4.4 0 8 3.6 8 8v28.4l28 -16.1c3.8 -2.2 8.7 -0.9 10.9 2.9l8 13.9c2.2 3.8 0.9 8.7 -2.9 10.9l-27.9 16l27.9 16c3.8 2.2 5.1 7.1 2.9 10.9l-8 13.9c-2.2 3.8 -7.1 5.1 -10.9 2.9l-28 -16.1v28.4c0 4.4 -3.6 8 -8 8h-16
c-4.4 0 -8 -3.6 -8 -8v-28.4l-28 16.1c-3.8 2.2 -8.7 0.9 -10.9 -2.9l-8 -13.9c-2.2 -3.8 -0.9 -8.7 2.9 -10.9l27.9 -16l-27.9 -16c-3.8 -2.2 -5.1 -7.1 -2.9 -10.9l8 -13.9c2.2 -3.8 7.1 -5.1 10.9 -2.9l28 16.1v-28.4zM608.1 192l27.9 16c3.8 2.2 5.1 7.1 2.9 10.9
l-8 13.9c-2.2 3.8 -7.1 5.1 -10.9 2.9l-28 -16.1v28.4c0 4.4 -3.6 8 -8 8h-16c-4.4 0 -8 -3.6 -8 -8v-28.4l-28 16.1c-3.8 2.2 -8.7 0.9 -10.9 -2.9l-8 -13.9c-2.2 -3.8 -0.9 -8.7 2.9 -10.9l27.9 -16l-27.9 -16c-3.8 -2.2 -5.1 -7.1 -2.9 -10.9l8 -13.9
c2.2 -3.8 7.1 -5.1 10.9 -2.9l28 16.1v-28.4c0 -4.4 3.6 -8 8 -8h16c4.4 0 8 3.6 8 8v28.4l28 -16.1c3.8 -2.2 8.7 -0.9 10.9 2.9l8 13.9c2.2 3.8 0.9 8.7 -2.9 10.9zM387.9 114.5l52.7 14.3c4.2 1.1 6.7 5.5 5.6 9.8l-4.1 15.5c-1.1 4.3 -5.5 6.8 -9.7 5.7l-83.1 -22.6
l-93.8 54.8l93.7 54.8l83.1 -22.6c4.2 -1.1 8.6 1.4 9.7 5.7l4.1 15.5c1.1 4.3 -1.4 8.7 -5.6 9.8l-52.7 14.3l55.9 32.7c3.8 2.2 5.1 7.1 2.9 10.9l-7.9 13.9c-2.2 3.8 -7 5.1 -10.8 2.9l-55.9 -32.7l14.1 53.3c1.1 4.3 -1.4 8.7 -5.6 9.8l-15.3 4.1
c-4.2 1.1 -8.6 -1.4 -9.7 -5.7l-22.3 -84.2l-93.7 -54.8v109.7l61 61.6c3.1 3.1 3.1 8.2 0 11.3l-11.2 11.3c-3.1 3.1 -8.1 3.1 -11.2 0l-38.6 -39v65.4c0 4.4 -3.5 8 -7.9 8h-15.8c-4.4 0 -7.9 -3.6 -7.9 -8v-65.4l-38.6 39c-3.1 3.1 -8.1 3.1 -11.2 0l-11.2 -11.3
c-3.1 -3.1 -3.1 -8.2 0 -11.3l60.9 -61.7v-109.7l-93.7 54.8l-22 84.4c-1.1 4.3 -5.5 6.8 -9.7 5.7l-15.3 -4.1c-4.2 -1.1 -6.7 -5.5 -5.6 -9.8l14.1 -53.3l-55.8 32.7c-3.8 2.2 -8.6 0.9 -10.8 -2.9l-7.9 -13.9c-2.2 -3.8 -0.9 -8.7 2.9 -10.9l55.9 -32.7l-52.6 -14.4
c-4.2 -1.1 -6.7 -5.5 -5.6 -9.8l4.1 -15.5c1.1 -4.3 5.5 -6.8 9.7 -5.7l83.1 22.6l93.7 -54.8l-93.7 -54.8l-83.1 22.6c-4.2 1.1 -8.6 -1.4 -9.7 -5.7l-4.1 -15.5c-1.1 -4.3 1.4 -8.7 5.6 -9.8l52.7 -14.3l-55.9 -32.6c-3.8 -2.2 -5.1 -7.1 -2.9 -10.9l7.9 -13.9
c2.2 -3.8 7 -5.1 10.8 -2.9l55.9 32.7l-14.1 -53.3c-1.1 -4.3 1.4 -8.7 5.6 -9.8l15.3 -4.1c4.2 -1.1 8.6 1.4 9.7 5.7l22.3 84.2l93.7 54.8v-109.7l-61 -61.7c-3.1 -3.1 -3.1 -8.2 0 -11.3l11.2 -11.3c3.1 -3.1 8.1 -3.1 11.2 0l38.6 39v-65.4c0 -4.4 3.5 -8 7.9 -8h15.8
c4.4 0 7.9 3.6 7.9 8v65.4l38.6 -39c3.1 -3.1 8.1 -3.1 11.2 0l11.2 11.3c3.1 3.1 3.1 8.2 0 11.3l-60.9 61.7v109.6l93.7 -54.8l22.3 -84.2c1.1 -4.3 5.5 -6.8 9.7 -5.7l15.3 4.1c4.2 1.1 6.7 5.5 5.6 9.8l-14.1 53.3l55.9 -32.7c3.8 -2.2 8.6 -0.9 10.8 2.9l7.9 13.9
c2.2 3.8 0.9 8.7 -2.9 10.9z" />
    <glyph glyph-name="spinner" unicode="&#xf110;" 
d="M288 416c0 -17.673 -14.327 -32 -32 -32s-32 14.327 -32 32s14.327 32 32 32s32 -14.327 32 -32zM256 0c-17.673 0 -32 -14.327 -32 -32s14.327 -32 32 -32s32 14.327 32 32s-14.327 32 -32 32zM512 192c0 17.673 -14.327 32 -32 32s-32 -14.327 -32 -32
s14.327 -32 32 -32s32 14.327 32 32zM64 192c0 17.673 -14.327 32 -32 32s-32 -14.327 -32 -32s14.327 -32 32 -32s32 14.327 32 32zM97.608 65.608c-17.673 0 -32 -14.327 -32 -32s14.327 -32 32 -32s32 14.327 32 32s-14.327 32 -32 32zM414.392 65.608
c-17.673 0 -32 -14.327 -32 -32s14.327 -32 32 -32s32 14.327 32 32s-14.327 32 -32 32zM97.608 382.392c-17.673 0 -32 -14.327 -32 -32s14.327 -32 32 -32s32 14.327 32 32s-14.327 32 -32 32z" />
    <glyph glyph-name="store" unicode="&#xf54e;" horiz-adv-x="616" 
d="M602 329.4l-64.9 103.6c-5.8 9.3 -16.1 15 -27.1 15h-404c-11 0 -21.3 -5.7 -27.1 -15l-64.9 -103.6c-29.6 -47.2 -10 -110.6 38 -130.8v-227.4c0 -19.4 14.3 -35.2 32 -35.2h448c17.7 0 32 15.8 32 35.2v227.4c48 20.2 67.6 83.6 38 130.8zM531.8 -32l-446.6 -0.3
c-0.3 0.2 -1.2 1.3 -1.2 3.5v220.8h2.5c29.6 0 55.8 13 73.8 33.1c18 -20.1 44.3 -33.1 73.8 -33.1c29.6 0 55.8 13 73.8 33.1c18 -20.1 44.3 -33.1 73.8 -33.1c29.6 0 55.8 13 73.8 33.1c18.1 -20.1 44.3 -33.1 73.9 -33.1h2.5v-64h-447.9v-32h448v-124.8
c0 -2 -0.8 -3.1 -0.2 -3.2zM578.2 254.5c-7.8 -16.6 -22.1 -27.5 -39.3 -29.8c-3.1 -0.4 -6.2 -0.6 -9.4 -0.6c-19.3 0 -37 8 -50 22.5l-23.8 26.4l-23.8 -26.6c-13 -14.5 -30.7 -22.5 -50 -22.5s-37 8 -50 22.5l-23.9 26.6l-23.8 -26.6c-13 -14.5 -30.7 -22.5 -50 -22.5
s-37 8 -50 22.5l-23.9 26.6l-23.8 -26.6c-13 -14.5 -30.7 -22.5 -50 -22.5c-3.2 0 -6.3 0.2 -9.4 0.6c-17.2 2.3 -31.5 13.2 -39.3 29.8c-8.7 18.6 -7.5 40.8 3.3 57.9l64.9 103.8h404l64.9 -103.6c10.8 -17.2 12 -39.3 3.3 -57.9z" />
    <glyph glyph-name="sun" unicode="&#xf185;" 
d="M256 304.3c-61.8 0 -112 -50.3 -112 -112.1s50.2 -112.1 112 -112.1s112 50.3 112 112.1s-50.2 112.1 -112 112.1zM256 112.1c-44.1 0 -80 35.9 -80 80.1s35.9 80.1 80 80.1c44.1 0 80 -35.9 80 -80.1s-35.9 -80.1 -80 -80.1zM512 192.2c0 5.3 -2.7 10.3 -7.1 13.3
l-82.9 55.5l19.4 97.9c1 5.2 -0.6 10.7 -4.4 14.4c-3.8 3.8 -9.1 5.5 -14.4 4.4l-97.8 -19.4l-55.5 83c-6 8.9 -20.6 8.9 -26.6 0l-55.5 -83l-97.8 19.5c-5.3 1.1 -10.6 -0.6 -14.4 -4.4c-3.8 -3.8 -5.4 -9.2 -4.4 -14.4l19.4 -98l-82.9 -55.5c-4.4 -3 -7.1 -8 -7.1 -13.3
s2.7 -10.3 7.1 -13.3l82.9 -55.5l-19.4 -97.9c-1 -5.2 0.6 -10.7 4.4 -14.4c3.8 -3.8 9.1 -5.5 14.4 -4.4l97.8 19.4l55.5 -83c3 -4.5 8 -7.1 13.3 -7.1s10.3 2.7 13.3 7.1l55.5 83l97.8 -19.4c5.4 -1.2 10.7 0.6 14.4 4.4c3.8 3.8 5.4 9.2 4.4 14.4l-19.4 97.9l82.9 55.5
c4.4 3 7.1 8 7.1 13.3zM395.3 144.1c-5.4 -3.6 -8 -10.1 -6.8 -16.4l16.8 -84.9l-84.8 16.8c-6.6 1.4 -12.8 -1.4 -16.4 -6.8l-48.1 -72l-48.1 71.9c-3 4.5 -8 7.1 -13.3 7.1c-1 0 -2.1 -0.1 -3.1 -0.3l-84.8 -16.8l16.8 84.9c1.2 6.3 -1.4 12.8 -6.8 16.4l-71.9 48.1
l71.9 48.2c5.4 3.6 8 10.1 6.8 16.4l-16.8 84.9l84.8 -16.8c6.5 -1.3 12.8 1.4 16.4 6.8l48.1 72l48.1 -72c3.6 -5.4 9.9 -8.1 16.4 -6.8l84.8 16.8l-16.8 -84.9c-1.2 -6.3 1.4 -12.8 6.8 -16.4l71.9 -48.2z" />
    <glyph glyph-name="taxi" unicode="&#xf1ba;" 
d="M96 160c-17.67 0 -32 -14.33 -32 -32s14.33 -32 32 -32s32 14.33 32 32c0 17.67 -14.33 32 -32 32zM416 160c-17.67 0 -32 -14.33 -32 -32s14.33 -32 32 -32s32 14.33 32 32c0 17.67 -14.33 32 -32 32zM328 128h-144c-4.42 0 -8 -3.58 -8 -8v-16c0 -4.42 3.58 -8 8 -8
h144c4.42 0 8 3.58 8 8v16c0 4.42 -3.58 8 -8 8zM447.11 218.4l-13.32 68.79c-7.26 37.56 -40.29 64.81 -78.54 64.81h-3.25v32c0 17.67 -14.33 32 -32 32h-128c-17.67 0 -32 -14.33 -32 -32v-32h-3.25c-38.25 0 -71.28 -27.25 -78.53 -64.8l-13.32 -68.8
c-37.67 -12.98 -64.9 -48.33 -64.9 -90.4v-32c0 -23.63 12.95 -44.04 32 -55.12v-40.88c0 -17.67 14.33 -32 32 -32h48c17.67 0 32 14.33 32 32v32h224v-32c0 -17.67 14.33 -32 32 -32h48c17.67 0 32 14.33 32 32v40.88c19.05 11.09 32 31.49 32 55.12v32
c0 42.07 -27.23 77.42 -64.89 90.4zM192 384h128v-32h-128v32zM109.66 281.12c4.34 22.54 24.15 38.88 47.09 38.88h198.5c22.94 0 42.75 -16.34 47.09 -38.89l11.06 -57.11h-314.8zM112 0h-48v32h48v-32zM448 0h-48v32h48v-32zM480 96c0 -17.64 -14.36 -32 -32 -32h-384
c-17.64 0 -32 14.36 -32 32v32c0 35.29 28.71 64 64 64h320c35.29 0 64 -28.71 64 -64v-32z" />
    <glyph glyph-name="temperature-frigid" unicode="&#xf768;" 
d="M416 93.1v18.9c0 8.8 -7.2 16 -16 16s-16 -7.2 -16 -16v-18.9c-18.6 -6.6 -32 -24.2 -32 -45.1c0 -26.5 21.5 -48 48 -48s48 21.5 48 48c0 20.9 -13.4 38.5 -32 45.1zM480 126.1v241.9c0 44.1 -35.9 80 -80 80s-80 -35.9 -80 -80v-241.9c-20.3 -20.8 -32 -48.9 -32 -78.1
c0 -61.8 50.2 -112 112 -112s112 50.2 112 112c0 29.2 -11.7 57.4 -32 78.1zM400 -32c-44.1 0 -80 35.9 -80 80c0 25.5 12.2 48.9 32 63.8v256.2c0 26.5 21.5 48 48 48s48 -21.5 48 -48v-256.2c19.8 -14.8 32 -38.3 32 -63.8c0 -44.1 -35.9 -80 -80 -80zM277.1 122
c3.4 5.6 6.8 11.1 10.9 16.2v14.2l-65.1 39.6l65.1 39.5v37.1l-80 -48.6v93.3l45.7 45.7c3.1 3.1 3.1 8.2 0 11.3l-11.3 11.3c-3.1 3.1 -8.2 3.1 -11.3 0l-23 -23v49.4c0 4.4 -3.6 8 -8 8h-16c-4.4 0 -8 -3.6 -8 -8v-49.4l-23 23c-3.1 3.1 -8.2 3.1 -11.3 0l-11.3 -11.3
c-3.1 -3.1 -3.1 -8.2 0 -11.3l45.7 -45.7v-93.3l-77.7 46.5l-16.1 62.4c-1.1 4.3 -5.3 6.8 -9.4 5.7l-14.9 -4.1c-4.1 -1.1 -6.6 -5.5 -5.5 -9.8l8.1 -31.5l-41.2 24.7c-3.7 2.2 -8.4 0.9 -10.5 -2.9l-8 -13.9c-2.1 -3.8 -0.9 -8.7 2.8 -10.9l41.2 -24.7l-30.2 -8.5
c-4.1 -1.1 -6.6 -5.5 -5.5 -9.8l4 -15.5c1.1 -4.3 5.3 -6.8 9.4 -5.7l60.2 16.7l78.2 -46.8l-78.2 -46.8l-60.2 16.7c-4.1 1.1 -8.3 -1.4 -9.4 -5.7l-4 -15.5c-1.1 -4.3 1.3 -8.7 5.5 -9.8l30.3 -8.4l-41.2 -24.5c-3.7 -2.2 -5 -7.1 -2.8 -10.9l7.7 -13.9
c2.1 -3.8 6.9 -5.1 10.5 -2.9l41.2 24.7l-8.1 -31.5c-1.1 -4.3 1.3 -8.7 5.5 -9.8l14.9 -4.1c4.1 -1.1 8.3 1.4 9.4 5.7l16.1 62.4l77.7 46.5v-93.3l-45.7 -45.8c-3.1 -3.1 -3.1 -8.2 0 -11.3l11.3 -11.3c3.1 -3.1 8.2 -3.1 11.3 0l23 23v-49.4c0 -4.4 3.6 -8 8 -8h16
c4.4 0 8 3.6 8 8v49.4l23 -23c3.1 -3.1 8.2 -3.1 11.3 0l11.3 11.3c3.1 3.1 3.1 8.2 0 11.3l-45.5 45.6v93.3z" />
    <glyph glyph-name="times" unicode="&#xf00d;" horiz-adv-x="320" 
d="M193.94 192l102.56 102.56l21.15 21.15c3.12 3.12 3.12 8.19 0 11.31l-22.63 22.63c-3.12 3.12 -8.19 3.12 -11.31 0l-123.71 -123.71l-123.71 123.72c-3.12 3.12 -8.19 3.12 -11.31 0l-22.64 -22.63c-3.12 -3.12 -3.12 -8.19 0 -11.31l123.72 -123.72l-123.72 -123.71
c-3.12 -3.12 -3.12 -8.19 0 -11.31l22.63 -22.63c3.12 -3.12 8.19 -3.12 11.31 0l123.72 123.71l102.56 -102.56l21.15 -21.15c3.12 -3.12 8.19 -3.12 11.31 0l22.63 22.63c3.12 3.12 3.12 8.19 0 11.31z" />
    <glyph glyph-name="tree-christmas" unicode="&#xf7db;" 
d="M304 96c-26.5 0 -48 -21.5 -48 -48s21.5 -48 48 -48s48 21.5 48 48s-21.5 48 -48 48zM304 32c-8.8 0 -16 7.2 -16 16s7.2 16 16 16s16 -7.2 16 -16s-7.2 -16 -16 -16zM272 176c0 26.5 -21.5 48 -48 48s-48 -21.5 -48 -48s21.5 -48 48 -48s48 21.5 48 48zM224 160
c-8.8 0 -16 7.2 -16 16s7.2 16 16 16s16 -7.2 16 -16s-7.2 -16 -16 -16zM505.3 -12.4l-84.5 108.7c10.5 1.6 19.7 8.3 24.3 18.1c5.3 11.2 3.6 24.5 -4.4 34.1l-134.1 161l27.9 13.9c10.8 5.4 17.7 16.5 17.7 28.6s-6.8 23.2 -17.7 28.6l-33.1 16.6l-16.6 33.1
c-5.6 10.9 -16.7 17.7 -28.8 17.7c-12.1 0 -23.2 -6.8 -28.6 -17.7l-16.6 -33.1l-33.1 -16.6c-10.9 -5.4 -17.7 -16.5 -17.7 -28.6s6.8 -23.2 17.7 -28.6l27.9 -13.9l-134.1 -161c-7.9 -9.5 -9.7 -22.8 -4.4 -34.1c4.6 -9.8 13.8 -16.5 24.3 -18.1l-84.7 -108.7
c-7.5 -9.6 -8.9 -22.7 -3.5 -33.7s16.6 -17.9 28.8 -17.9h448c12.2 0 23.4 7 28.7 17.9c5.3 10.9 4.1 24.1 -3.4 33.7zM192 352l42.7 21.3l21.3 42.7l21.3 -42.7l42.7 -21.3l-42.7 -21.3l-21.3 -42.7l-21.3 42.7zM32 -32l124.4 160h-60.4l127.6 153.2l3.7 -7.5
c5.4 -10.8 16.5 -17.7 28.6 -17.7c12.1 0 23.2 6.8 28.6 17.7l3.7 7.5l127.8 -153.2h-60.4l124.4 -160h-448z" />
    <glyph glyph-name="user-astronaut" unicode="&#xf4fb;" horiz-adv-x="448" 
d="M288 320h-128c-35.3 0 -64 -28.7 -64 -64v-16c0 -61.8 50.2 -112 112 -112h32c61.8 0 112 50.2 112 112v16c0 35.3 -28.7 64 -64 64zM320 240c0 -44.1 -35.9 -80 -80 -80h-32c-44.1 0 -80 35.9 -80 80v16c0 17.6 14.3 32 32 32h128c17.7 0 32 -14.4 32 -32v-16zM192 272
l-12 -36l-36 -12l36 -12l12 -36l12 36l36 12l-36 12zM304 48h-160c-26.5 0 -48 -21.5 -48 -48v-56c0 -4.4 3.6 -8 8 -8h16c4.4 0 8 3.6 8 8v56c0 8.8 7.2 16 16 16h160c8.8 0 16 -7.2 16 -16v-56c0 -4.4 3.6 -8 8 -8h16c4.4 0 8 3.6 8 8v56c0 26.5 -21.5 48 -48 48zM272 0
c-8.8 0 -16 -7.2 -16 -16s7.2 -16 16 -16s16 7.2 16 16s-7.2 16 -16 16zM176 0c-8.8 0 -16 -7.2 -16 -16v-40c0 -4.4 3.6 -8 8 -8h16c4.4 0 8 3.6 8 8v40c0 8.8 -7.2 16 -16 16zM359.2 119.7c20.3 20.1 35.9 44.8 45.7 72.3h11.1c8.8 0 16 7.2 16 16v96
c0 8.8 -7.2 16 -16 16h-11.2c-26.3 74.5 -97.2 128 -180.8 128s-154.5 -53.5 -180.8 -128h-11.2c-8.8 0 -16 -7.2 -16 -16v-96c0 -8.8 7.2 -16 16 -16h11.2c9.7 -27.5 25.4 -52.2 45.7 -72.3c-51.8 -18.7 -88.9 -67.9 -88.9 -126.1v-49.6c0 -4.4 3.6 -8 8 -8h16
c4.4 0 8 3.6 8 8v49.6c0 51.6 38.5 94 88.3 101c29.9 -19.3 65.5 -30.6 103.7 -30.6c38.2 0 73.8 11.3 103.7 30.6c49.8 -6.9 88.3 -49.3 88.3 -101v-49.6c0 -4.4 3.6 -8 8 -8h16c4.4 0 8 3.6 8 8v49.6c0 58.2 -37.1 107.4 -88.8 126.1zM224 96c-88.2 0 -160 71.8 -160 160
s71.8 160 160 160s160 -71.8 160 -160s-71.8 -160 -160 -160z" />
    <glyph glyph-name="user-chart" unicode="&#xf6a3;" horiz-adv-x="640" 
d="M608 448h-416c-17.67 0 -32 -14.33 -32 -32v-96c-53.02 0 -96 -42.98 -96 -96s42.98 -96 96 -96s96 42.98 96 96c0 41.74 -26.8 76.9 -64 90.12v101.88h416v-352h-302.66c-0.59 0.94 -1.03 1.96 -1.65 2.88c-17.25 25.62 -46.67 39.11 -76.9 39.11
c-27.79 -0.01 -34.77 -9.99 -66.79 -9.99c-31.97 0 -38.95 9.98 -66.79 9.98c-30.23 0 -59.65 -13.48 -76.9 -39.11c-10.3 -15.29 -16.31 -33.71 -16.31 -53.54v-37.33c0 -22.09 17.91 -40 40 -40h240c22.09 0 40 17.91 40 40v37.33c0 6.41 -0.84 12.6 -2.04 18.67h290.04
c17.67 0 32 14.33 32 32v352c0 17.67 -14.33 32 -32 32zM224 224c0 -35.29 -28.71 -64 -64 -64s-64 28.71 -64 64c0 35.29 28.71 64 64 64s64 -28.71 64 -64zM288 -24c0 -4.41 -3.59 -8 -8 -8h-240c-4.41 0 -8 3.59 -8 8v37.33c0 12.79 3.75 25.13 10.85 35.67
c10.53 15.64 29.35 24.98 50.36 24.98c21.8 0 29.99 -9.98 66.79 -9.98c36.79 0 45.01 9.98 66.79 9.98c21 0 39.83 -9.34 50.36 -24.98c7.1 -10.54 10.85 -22.88 10.85 -35.67zM338.62 295.31c-9.38 9.38 -24.56 9.38 -33.94 0l-25.49 -25.49
c4.56 -11.72 7.3 -24.17 8.21 -37.04l34.25 34.25l63.04 -63.03c4.69 -4.69 10.81 -7.02 16.97 -7.02s12.28 2.33 16.97 7.02l58.97 58.97l33.24 -33.24c3.96 -3.96 8.82 -5.73 13.6 -5.73c9.99 0 19.57 7.76 19.57 19.47v95.58c0 7.15 -5.8 12.95 -12.95 12.95h-95.58
c-17.31 0 -25.98 -20.93 -13.74 -33.17l33.24 -33.24l-53.31 -53.31zM512 320v-46.18l-46.18 46.18h46.18z" />
    <glyph glyph-name="user-check" unicode="&#xf4fc;" horiz-adv-x="640" 
d="M637.7 303.4l-14.1 14.2c-3.1 3.1 -8.2 3.2 -11.3 0l-115.2 -111.7l-53.3 53.4c-3.1 3.1 -8.2 3.1 -11.3 0l-14.2 -14.1c-3.1 -3.1 -3.1 -8.2 0 -11.3l70.2 -70.4c4.7 -4.7 12.3 -4.7 17 0l132.1 128.6c3.2 3.1 3.2 8.2 0.1 11.3zM313.6 160c-28.7 0 -42.5 -16 -89.6 -16
s-60.8 16 -89.6 16c-74.2 0 -134.4 -60.2 -134.4 -134.4v-41.6c0 -26.5 21.5 -48 48 -48h352c26.5 0 48 21.5 48 48v41.6c0 74.2 -60.2 134.4 -134.4 134.4zM416 -16c0 -8.8 -7.2 -16 -16 -16h-352c-8.8 0 -16 7.2 -16 16v41.6c0 56.5 45.9 102.4 102.4 102.4
c19.6 0 39.1 -16 89.6 -16c50.4 0 70 16 89.6 16c56.5 0 102.4 -45.9 102.4 -102.4v-41.6zM224 192c70.7 0 128 57.3 128 128s-57.3 128 -128 128s-128 -57.3 -128 -128s57.3 -128 128 -128zM224 416c52.9 0 96 -43.1 96 -96s-43.1 -96 -96 -96s-96 43.1 -96 96
s43.1 96 96 96z" />
    <glyph glyph-name="user-cog" unicode="&#xf4fe;" horiz-adv-x="640" 
d="M628.3 89.7l-16.5 9.5c0.8 8.5 0.8 17.1 0 25.6l16.6 9.5c9.5 5.5 13.8 16.7 10.5 27c-7.2 23.4 -19.9 45.4 -36.7 63.5c-7.4 8.1 -19.3 9.9 -28.7 4.4l-16.5 -9.5c-7 5 -14.4 9.3 -22.2 12.8v19c0 11 -7.5 20.3 -18.2 22.7c-23.9 5.4 -49.3 5.4 -73.2 0
c-10.7 -2.4 -18.2 -11.8 -18.2 -22.7v-19c-7.8 -3.5 -15.2 -7.8 -22.2 -12.8l-16.5 9.5c-9.5 5.5 -21.3 3.7 -28.7 -4.4c-16.7 -18.1 -29.4 -40.1 -36.7 -63.4c-3.3 -10.4 1.2 -21.8 10.6 -27.2l16.5 -9.5c-0.8 -8.5 -0.8 -17.1 0 -25.6l-16.6 -9.5
c-9.3 -5.4 -13.8 -16.9 -10.5 -27.1c7.2 -23.4 19.9 -45.4 36.7 -63.5c7.4 -8 19.2 -9.8 28.7 -4.4l16.5 9.5c7 -5 14.4 -9.3 22.2 -12.8v-19c0 -11 7.5 -20.3 18.2 -22.7c12 -2.7 24.3 -4 36.6 -4s24.7 1.3 36.6 4c10.7 2.4 18.2 11.8 18.2 22.7v19
c7.8 3.5 15.2 7.8 22.2 12.8l16.5 -9.5c9.4 -5.4 21.3 -3.6 28.7 4.4c16.7 18.1 29.4 40.1 36.7 63.4c3.3 10.4 -1.2 21.9 -10.6 27.3zM576.7 82.5l29.4 -17c-5.2 -14.3 -13 -27.8 -22.8 -39.5l-29.4 17c-21.4 -18.3 -24.5 -20.1 -51.1 -29.5v-34
c-15.1 -2.6 -30.6 -2.6 -45.6 0v34c-26.9 9.5 -30.2 11.7 -51.1 29.5l-29.4 -17c-9.8 11.8 -17.6 25.2 -22.8 39.5l29.4 17c-4.9 26.8 -5.2 30.6 0 59l-29.4 17c5.2 14.3 13 27.7 22.8 39.5l29.4 -17c21.4 18.3 24.5 20.1 51.1 29.5v34c15.1 2.5 30.7 2.5 45.6 0v-34
c26.8 -9.5 30.2 -11.6 51.1 -29.5l29.4 17c9.8 -11.8 17.6 -25.2 22.8 -39.5l-29.4 -17c4.9 -26.8 5.2 -30.6 0 -59zM480 176.5c-35.6 0 -64.5 -29 -64.5 -64.5s28.9 -64.5 64.5 -64.5s64.5 29 64.5 64.5s-28.9 64.5 -64.5 64.5zM480 79.5c-17.9 0 -32.5 14.6 -32.5 32.5
s14.6 32.5 32.5 32.5s32.5 -14.6 32.5 -32.5s-14.6 -32.5 -32.5 -32.5zM224 192c70.7 0 128 57.3 128 128s-57.3 128 -128 128s-128 -57.3 -128 -128s57.3 -128 128 -128zM224 416c52.9 0 96 -43.1 96 -96s-43.1 -96 -96 -96s-96 43.1 -96 96s43.1 96 96 96zM48 -32
c-8.8 0 -16 7.2 -16 16v41.6c0 56.5 45.9 102.4 102.4 102.4c19.6 0 39.1 -16 89.6 -16c19.2 0 38 3.3 56.5 8.7c0.5 11.6 1.8 23 4.2 34c-8.9 -2.7 -30.1 -10.7 -60.7 -10.7c-47.1 0 -60.8 16 -89.6 16c-74.2 0 -134.4 -60.2 -134.4 -134.4v-41.6c0 -26.5 21.5 -48 48 -48
h337c-16 8.6 -30.6 19.5 -43.5 32h-293.5z" />
    <glyph glyph-name="user-graduate" unicode="&#xf501;" horiz-adv-x="448" 
d="M319.4 127.4l-95.4 -79.4l-95.4 79.4c-18.4 -0.8 -128.6 -15.5 -128.6 -143.4c0 -26.5 21.5 -48 48 -48h352c26.5 0 48 21.5 48 48c0 127.9 -110.1 142.6 -128.6 143.4zM208 -32h-160c-8.8 0 -16 7.2 -16 16c0 99.6 84.1 109.9 86.4 110.3l89.6 -74.6v-51.7zM416 -16
c0 -8.8 -7.2 -16 -16 -16h-160v51.7l89.6 74.6c2.3 -0.4 86.4 -10.7 86.4 -110.3zM13.2 348l6.8 -2v-37.6c-7 -4.2 -12 -11.5 -12 -20.3c0 -8.4 4.6 -15.4 11.1 -19.7l-15.6 -62.4c-1.7 -6.9 2.1 -14 7.6 -14h41.8c5.5 0 9.3 7.1 7.6 14l-15.6 62.3
c6.5 4.3 11.1 11.3 11.1 19.7c0 8.8 -5 16.1 -12 20.3v30.5l46.7 -13.8c-6.7 -16.4 -10.7 -34.2 -10.7 -53c0 -79.5 64.5 -144 144 -144s144 64.5 144 144c0 18.8 -4 36.6 -10.7 53l77.5 23c17.6 5.2 17.6 34.8 0 40l-193.9 57.5c-5.6 1.7 -11.2 2.5 -16.9 2.5
s-11.3 -0.8 -16.9 -2.5l-193.9 -57.5c-17.6 -5.2 -17.6 -34.8 1.06581e-14 -40zM224 160c-61.8 0 -112 50.2 -112 112c0 15.7 3.7 30.3 9.6 43.8l85.5 -25.4c14.8 -4.4 27.2 -2 33.8 0l85.5 25.4c5.9 -13.5 9.6 -28.2 9.6 -43.8c0 -61.8 -50.2 -112 -112 -112zM216.2 414.9
c0.8 0.2 7.3 2.4 15.6 0l158 -46.9l-158 -46.9c-0.8 -0.2 -7.3 -2.4 -15.6 0l-158 46.9z" />
    <glyph glyph-name="users-class" unicode="&#xf63d;" horiz-adv-x="640" 
d="M544 224c-44.2 0 -80 -35.8 -80 -80s35.8 -80 80 -80c44.2 0 80 35.8 80 80c0 44.2 -35.8 80 -80 80zM544 96c-26.5 0 -48 21.5 -48 48s21.5 48 48 48s48 -21.5 48 -48s-21.5 -48 -48 -48zM240 144c0 -44.2 35.8 -80 80 -80s80 35.8 80 80c0 44.2 -35.8 80 -80 80
s-80 -35.8 -80 -80zM368 144c0 -26.5 -21.5 -48 -48 -48s-48 21.5 -48 48s21.5 48 48 48s48 -21.5 48 -48zM96 64c44.2 0 80 35.8 80 80c0 44.2 -35.8 80 -80 80s-80 -35.8 -80 -80s35.8 -80 80 -80zM96 192c26.5 0 48 -21.5 48 -48s-21.5 -48 -48 -48s-48 21.5 -48 48
s21.5 48 48 48zM564 32h-40c-41.9 0 -76 -35.9 -76 -80c0 -8.8 7.2 -16 16 -16s16 7.2 16 16c0 26.5 19.8 48 44 48h40c24.2 0 44 -21.5 44 -48c0 -8.8 7.2 -16 16 -16s16 7.2 16 16c0 44.1 -34.1 80 -76 80zM116 32h-40c-41.9 0 -76 -35.9 -76 -80c0 -8.8 7.2 -16 16 -16
s16 7.2 16 16c0 26.5 19.8 48 44 48h40c24.2 0 44 -21.5 44 -48c0 -8.8 7.2 -16 16 -16s16 7.2 16 16c0 44.1 -34.1 80 -76 80zM340 32h-40c-41.9 0 -76 -35.9 -76 -80c0 -8.8 7.2 -16 16 -16s16 7.2 16 16c0 26.5 19.8 48 44 48h40c24.2 0 44 -21.5 44 -48
c0 -8.8 7.2 -16 16 -16s16 7.2 16 16c0 44.1 -34.1 80 -76 80zM64 400c0 8.83 7.19 16 16 16h480c8.81 0 16 -7.17 16 -16v-149.22c11.51 -3.46 22.37 -8.36 32 -15.11v164.33c0 26.47 -21.53 48 -48 48h-480c-26.47 0 -48 -21.53 -48 -48v-164.33
c9.63 6.75 20.49 11.64 32 15.11v149.22z" />
    <glyph glyph-name="users" unicode="&#xf0c0;" horiz-adv-x="640" 
d="M544 224c44.2 0 80 35.8 80 80s-35.8 80 -80 80s-80 -35.8 -80 -80s35.8 -80 80 -80zM544 352c26.5 0 48 -21.5 48 -48s-21.5 -48 -48 -48s-48 21.5 -48 48s21.5 48 48 48zM320 192c61.9 0 112 50.1 112 112c0 61.9 -50.1 112 -112 112s-112 -50.1 -112 -112
s50.1 -112 112 -112zM320 384c44.1 0 80 -35.9 80 -80s-35.9 -80 -80 -80s-80 35.9 -80 80s35.9 80 80 80zM564 192h-40c-15.2 0 -29.3 -4.8 -41.1 -12.9c9.4 -6.4 17.9 -13.9 25.4 -22.4c4.9 2.1 10.2 3.3 15.7 3.3h40c24.2 0 44 -21.5 44 -48c0 -8.8 7.2 -16 16 -16
s16 7.2 16 16c0 44.1 -34.1 80 -76 80zM96 224c44.2 0 80 35.8 80 80s-35.8 80 -80 80s-80 -35.8 -80 -80s35.8 -80 80 -80zM96 352c26.5 0 48 -21.5 48 -48s-21.5 -48 -48 -48s-48 21.5 -48 48s21.5 48 48 48zM400.1 172c-33.4 0 -41.7 -12 -80.1 -12
c-38.4 0 -46.7 12 -80.1 12c-36.3 0 -71.6 -16.2 -92.3 -46.9c-12.4 -18.4 -19.6 -40.5 -19.6 -64.3v-44.8c0 -26.5 21.5 -48 48 -48h288c26.5 0 48 21.5 48 48v44.8c0 23.8 -7.2 45.9 -19.6 64.3c-20.7 30.7 -56 46.9 -92.3 46.9zM480 16c0 -8.8 -7.2 -16 -16 -16h-288
c-8.8 0 -16 7.2 -16 16v44.8c0 16.6 4.9 32.7 14.1 46.4c13.8 20.5 38.4 32.8 65.7 32.8c27.4 0 37.2 -12 80.2 -12s52.8 12 80.1 12s51.9 -12.3 65.7 -32.8c9.2 -13.7 14.1 -29.8 14.1 -46.4v-44.8zM157.1 179.1c-11.9 8.1 -26 12.9 -41.1 12.9h-40
c-41.9 0 -76 -35.9 -76 -80c0 -8.8 7.2 -16 16 -16s16 7.2 16 16c0 26.5 19.8 48 44 48h40c5.5 0 10.8 -1.2 15.7 -3.3c7.5 8.5 16.1 16 25.4 22.4z" />
    <glyph glyph-name="utensils" unicode="&#xf2e7;" horiz-adv-x="480" 
d="M344.1 -22.3l14.2 164.8c-42.1 33.1 -70.4 77 -70.4 129.5c0.1 94.3 88.2 176 152.1 176c22.1 0 40 -17.3 40 -38.5v-435c0 -21.2 -17.9 -38.5 -40 -38.5h-56c-22.8 0 -41.8 18.7 -39.9 41.7zM320 272c0 -51 32.2 -85.5 71.8 -114.5l-15.8 -182.6
c-0.3 -3.7 3.4 -6.9 8 -6.9h56c4.3 0 8 3 8 6.5v435c0 3.5 -3.7 6.5 -8 6.5c-44.6 0 -120 -65.8 -120 -144zM240.7 414.2c-3.3 19.5 -21.2 33.8 -46.1 33.8c-11.9 0 -24.1 -3.4 -33.3 -11.2c-8.4 7.1 -20 11.2 -33.3 11.2s-24.9 -4.1 -33.3 -11.2
c-9.2 7.8 -21.4 11.2 -33.3 11.2c-25.2 0 -42.8 -14.5 -46.1 -33.8c-1.8 -9.4 -15.3 -84.6 -15.3 -116.1c0 -50.9 26.7 -91.6 71 -110.7l-11.4 -210.8c-1.2 -22 16.3 -40.6 38.4 -40.6h60c22 0 39.6 18.5 38.4 40.6l-11.4 210.8c44.2 19.1 71 59.8 71 110.7
c0 31.5 -13.5 106.7 -15.3 116.1zM152.3 208l12.2 -233.1c0.2 -3.7 -2.7 -6.9 -6.5 -6.9h-60c-3.7 0 -6.7 3.1 -6.5 6.9l12.2 233.1c-42.4 8.8 -71.7 43 -71.7 90.1c0 29.7 14.8 110.6 14.8 110.6c1.6 9.9 28.3 9.7 29.5 -0.2v-122.5c0.9 -11.5 28.2 -11.7 29.5 -0.2
l7.4 122.9c1.6 9.7 27.9 9.7 29.5 0l7.4 -122.9c1.3 -11.4 28.6 -11.2 29.5 0.2v122.4c1.2 9.9 27.9 10.1 29.5 0.2c0 0 14.8 -80.9 14.8 -110.6c0.1 -46.8 -29 -81.2 -71.6 -90z" />
    <glyph glyph-name="wifi" unicode="&#xf1eb;" horiz-adv-x="640" 
d="M320 128c-44.18 0 -80 -35.82 -80 -80c0 -44.19 35.83 -80 80 -80c44.19 0 80 35.84 80 80c0 44.18 -35.82 80 -80 80zM320 0c-26.47 0 -48 21.53 -48 48s21.53 48 48 48s48 -21.53 48 -48s-21.53 -48 -48 -48zM636.21 290.05c-176.99 167.85 -455.26 168.01 -632.42 0
c-4.94 -4.69 -5.08 -12.51 -0.26 -17.32l5.69 -5.69c4.61 -4.61 12.07 -4.74 16.8 -0.25c164.99 156.39 423.64 155.76 587.97 0c4.73 -4.48 12.19 -4.35 16.8 0.25l5.69 5.69c4.81 4.81 4.67 12.63 -0.27 17.32zM526.02 177.69c-117.34 104.48 -294.86 104.34 -412.04 0
c-5.05 -4.5 -5.32 -12.31 -0.65 -17.2l5.53 -5.79c4.46 -4.67 11.82 -4.96 16.66 -0.67c105.17 93.38 264 93.21 368.98 0c4.83 -4.29 12.19 -4.01 16.66 0.67l5.53 5.79c4.65 4.89 4.38 12.7 -0.67 17.2z" />
    <glyph glyph-name="facebook-square" unicode="&#xf082;" horiz-adv-x="448" 
d="M448 368v-352c0 -26.5 -21.5 -48 -48 -48h-85.3v177.2h60.6l8.7 67.6h-69.3v43.2c0 19.6 5.4 32.9 33.5 32.9h35.8v60.4c-6.2 0.8 -27.4 2.7 -52.2 2.7c-51.6 0 -87 -31.5 -87 -89.4v-49.9h-60.8v-67.6h60.9v-177.1h-196.9c-26.5 0 -48 21.5 -48 48v352
c0 26.5 21.5 48 48 48h352c26.5 0 48 -21.5 48 -48z" />
    <glyph glyph-name="instagram" unicode="&#xf16d;" horiz-adv-x="448" 
d="M224.1 307c-63.6 0 -114.9 -51.3 -114.9 -114.9s51.3 -114.9 114.9 -114.9s114.9 51.3 114.9 114.9s-51.3 114.9 -114.9 114.9zM224.1 117.4c-41.1 0 -74.7 33.5 -74.7 74.7s33.5 74.7 74.7 74.7s74.7 -33.5 74.7 -74.7s-33.6 -74.7 -74.7 -74.7zM370.5 311.7
c0 -14.9 -12 -26.8 -26.8 -26.8c-14.9 0 -26.8 12 -26.8 26.8s12 26.8 26.8 26.8s26.8 -12 26.8 -26.8zM446.6 284.5c-1.7 35.9 -9.9 67.7 -36.2 93.9c-26.2 26.2 -58 34.4 -93.9 36.2c-37 2.1 -147.9 2.1 -184.9 0c-35.8 -1.7 -67.6 -9.9 -93.9 -36.1
s-34.4 -58 -36.2 -93.9c-2.1 -37 -2.1 -147.9 0 -184.9c1.7 -35.9 9.9 -67.7 36.2 -93.9c26.3 -26.2 58 -34.4 93.9 -36.2c37 -2.1 147.9 -2.1 184.9 0c35.9 1.7 67.7 9.9 93.9 36.2c26.2 26.2 34.4 58 36.2 93.9c2.1 37 2.1 147.8 5.68434e-14 184.8zM398.8 60
c-7.8 -19.6 -22.9 -34.7 -42.6 -42.6c-29.5 -11.7 -99.5 -9 -132.1 -9s-102.7 -2.6 -132.1 9c-19.6 7.8 -34.7 22.9 -42.6 42.6c-11.7 29.5 -9 99.5 -9 132.1s-2.6 102.7 9 132.1c7.8 19.6 22.9 34.7 42.6 42.6c29.5 11.7 99.5 9 132.1 9s102.7 2.6 132.1 -9
c19.6 -7.8 34.7 -22.9 42.6 -42.6c11.7 -29.5 9 -99.5 9 -132.1s2.7 -102.7 -9 -132.1z" />
    <glyph glyph-name="leanpub" unicode="&#xf212;" horiz-adv-x="576" 
d="M386.539 336.515l15.096 -248.955l-10.979 0.275c-36.232 0.824 -71.64 -8.783 -102.657 -27.997c-31.016 19.214 -66.424 27.997 -102.657 27.997c-45.564 0 -82.07 -10.705 -123.516 -27.723l31.291 258.288c28.546 11.803 61.484 18.115 92.226 18.115
c41.173 0 73.836 -13.175 102.657 -42.544c27.723 28.271 59.013 41.721 98.539 42.544zM569.07 0c-25.526 0 -47.485 5.215 -70.542 15.645c-34.31 15.645 -69.993 24.978 -107.871 24.978c-38.977 0 -74.934 -12.901 -102.657 -40.623
c-27.723 27.723 -63.68 40.623 -102.657 40.623c-37.878 0 -73.561 -9.333 -107.871 -24.978c-22.233 -9.881 -44.741 -15.645 -69.169 -15.645h-1.373l42.545 349.141c39.251 22.233 87.011 34.859 132.3 34.859c37.055 0 75.209 -7.685 106.225 -29.095
c31.016 21.41 69.17 29.095 106.225 29.095c45.289 0 93.049 -12.626 132.3 -34.859zM525.702 44.741l-34.036 280.246c-30.742 13.999 -67.248 21.41 -101.009 21.41c-38.428 0 -74.385 -12.077 -102.657 -38.702c-28.272 26.625 -64.228 38.702 -102.657 38.702
c-33.761 0 -70.267 -7.411 -101.009 -21.41l-34.036 -280.246c47.211 19.487 82.894 33.486 135.045 33.486c37.604 0 70.817 -9.606 102.657 -29.644c31.84 20.038 65.052 29.644 102.657 29.644c52.151 0 87.834 -13.999 135.045 -33.486z" />
    <glyph glyph-name="linkedin" unicode="&#xf08c;" horiz-adv-x="448" 
d="M416 416h-384.1c-17.6 0 -31.9 -14.5 -31.9 -32.3v-383.4c0 -17.8 14.3 -32.3 31.9 -32.3h384.1c17.6 0 32 14.5 32 32.3v383.4c0 17.8 -14.4 32.3 -32 32.3zM135.4 32h-66.4v213.8h66.5v-213.8h-0.1zM102.2 275c-21.3 0 -38.5 17.3 -38.5 38.5s17.2 38.5 38.5 38.5
c21.2 0 38.5 -17.3 38.5 -38.5c0 -21.3 -17.2 -38.5 -38.5 -38.5zM384.3 32h-66.4v104c0 24.8 -0.5 56.7 -34.5 56.7c-34.6 0 -39.9 -27 -39.9 -54.9v-105.8h-66.4v213.8h63.7v-29.2h0.9c8.9 16.8 30.6 34.5 62.9 34.5c67.2 0 79.7 -44.3 79.7 -101.9z" />
    <glyph glyph-name="twitter" unicode="&#xf099;" 
d="M459.37 296.284c0.325 -4.548 0.325 -9.097 0.325 -13.645c0 -138.72 -105.583 -298.558 -298.558 -298.558c-59.452 0 -114.68 17.219 -161.137 47.106c8.447 -0.974 16.568 -1.299 25.34 -1.299c49.055 0 94.213 16.568 130.274 44.832
c-46.132 0.975 -84.792 31.188 -98.112 72.772c6.498 -0.974 12.995 -1.624 19.818 -1.624c9.421 0 18.843 1.3 27.614 3.573c-48.081 9.747 -84.143 51.98 -84.143 102.985v1.299c13.969 -7.797 30.214 -12.67 47.431 -13.319
c-28.264 18.843 -46.781 51.005 -46.781 87.391c0 19.492 5.197 37.36 14.294 52.954c51.655 -63.675 129.3 -105.258 216.365 -109.807c-1.624 7.797 -2.599 15.918 -2.599 24.04c0 57.828 46.782 104.934 104.934 104.934c30.213 0 57.502 -12.67 76.67 -33.137
c23.715 4.548 46.456 13.32 66.599 25.34c-7.798 -24.366 -24.366 -44.833 -46.132 -57.827c21.117 2.273 41.584 8.122 60.426 16.243c-14.292 -20.791 -32.161 -39.308 -52.628 -54.253z" />
    <glyph glyph-name="youtube-square" unicode="&#xf431;" horiz-adv-x="448" 
d="M186.8 245.9l95.2 -54.1l-95.2 -54.1v108.2zM448 368v-352c0 -26.5 -21.5 -48 -48 -48h-352c-26.5 0 -48 21.5 -48 48v352c0 26.5 21.5 48 48 48h352c26.5 0 48 -21.5 48 -48zM406 191.7c0 0 0 59.6 -7.6 88.2c-4.2 15.8 -16.5 28.2 -32.2 32.4
c-28.3 7.7 -142.2 7.7 -142.2 7.7s-113.9 0 -142.2 -7.7c-15.7 -4.2 -28 -16.6 -32.2 -32.4c-7.6 -28.5 -7.6 -88.2 -7.6 -88.2s0 -59.6 7.6 -88.2c4.2 -15.8 16.5 -27.7 32.2 -31.9c28.3 -7.6 142.2 -7.6 142.2 -7.6s113.9 0 142.2 7.7c15.7 4.2 28 16.1 32.2 31.9
c7.6 28.5 7.6 88.1 7.6 88.1z" />
    <glyph glyph-name="check-circle" unicode="&#xf058;" 
d="M504 192c0 -136.967 -111.033 -248 -248 -248s-248 111.033 -248 248s111.033 248 248 248s248 -111.033 248 -248zM227.314 60.686l184 184c6.248 6.248 6.248 16.379 0 22.627l-22.627 22.627c-6.248 6.249 -16.379 6.249 -22.628 0l-150.059 -150.058l-70.059 70.059
c-6.248 6.248 -16.379 6.248 -22.628 0l-22.627 -22.627c-6.248 -6.248 -6.248 -16.379 0 -22.627l104 -104c6.249 -6.249 16.379 -6.249 22.628 -0.001z" />
    <glyph glyph-name="chevron-circle-left-bold" unicode="&#xf152;" 
d="M256 -56c-137 0 -248 111 -248 248s111 248 248 248s248 -111 248 -248s-111 -248 -248 -248zM142.1 175l135.5 -135.5c9.4 -9.4 24.6 -9.4 33.9 0l17 17c9.4 9.4 9.4 24.6 0 33.9l-101.6 101.6l101.6 101.6c9.4 9.4 9.4 24.6 0 33.9l-17 17c-9.4 9.4 -24.6 9.4 -33.9 0
l-135.5 -135.5c-9.4 -9.4 -9.4 -24.6 -2.84217e-14 -34z" />
    <glyph glyph-name="chevron-circle-right-bold" unicode="&#xf153;" 
d="M256 440c137 0 248 -111 248 -248s-111 -248 -248 -248s-248 111 -248 248s111 248 248 248zM369.9 209l-135.5 135.5c-9.4 9.4 -24.6 9.4 -33.9 0l-17 -17c-9.4 -9.4 -9.4 -24.6 0 -33.9l101.6 -101.6l-101.6 -101.6c-9.4 -9.4 -9.4 -24.6 0 -33.9l17 -17
c9.4 -9.4 24.6 -9.4 33.9 0l135.5 135.5c9.4 9.4 9.4 24.6 0 34z" />
    <glyph glyph-name="external-link-alt" unicode="&#xf35d;" horiz-adv-x="576" 
d="M576 424v-127.984c0 -21.461 -25.96 -31.98 -40.971 -16.971l-35.707 35.709l-243.523 -243.523c-9.373 -9.373 -24.568 -9.373 -33.941 0l-22.627 22.627c-9.373 9.373 -9.373 24.569 0 33.941l243.525 243.525l-35.703 35.705
c-15.071 15.071 -4.397 40.971 16.971 40.971h127.976c13.255 0 24 -10.745 24 -24zM407.029 177.206l-16 -16c-3.88001 -3.88007 -7.029 -11.4825 -7.029 -16.9697l3.45995e-08 -0.00128868v-144.235h-320v320h264c5.48714 0.000312745 13.0897 3.1493 16.97 7.029l16 16
c15.119 15.12 4.411 40.971 -16.97 40.971h-296c-26.51 0 -48 -21.49 -48 -48v-352c0 -26.51 21.49 -48 48 -48h352c26.51 0 48 21.49 48 48v176.236c0 21.382 -25.852 32.09 -40.971 16.97z" />
    <glyph glyph-name="external-link" unicode="&#xf08e;" horiz-adv-x="576" 
d="M448 168.804v-184.804c0 -26.51 -21.49 -48 -48 -48h-352c-26.51 0 -48 21.49 -48 48v352c0 26.51 21.49 48 48 48h248c5.48726 -2.86906e-05 13.0898 -3.14902 16.97 -7.029l16 -16c15.12 -15.12 4.412 -40.971 -16.97 -40.971h-248v-320h320v152.804
c0 6.365 2.529 12.47 7.029 16.971l16 16c15.119 15.119 40.971 4.411 40.971 -16.971zM576 410.667c0 20.618 -16.715 37.333 -37.333 37.333h-158.667c-15.464 0 -28 -12.536 -28 -28v-17.885c0 -15.766 13.011 -28.424 28.772 -27.989l67.203 1.906l-248.885 -247.122
c-9.429 -9.363 -9.457 -24.605 -0.061 -34.001l23.879 -23.879c9.396 -9.396 24.639 -9.369 34.001 0.06l247.122 248.885l-1.906 -67.203c-0.434 -15.76 12.224 -28.772 27.99 -28.772h17.885c15.464 0 28 12.536 28 28v158.667z" />
    <glyph glyph-name="quote-left" unicode="&#xf10d;" 
d="M464 192h-80v64c0 35.3 28.7 64 64 64h8c13.3 0 24 10.7 24 24v48c0 13.3 -10.7 24 -24 24h-8c-88.4 0 -160 -71.6 -160 -160v-240c0 -26.5 21.5 -48 48 -48h128c26.5 0 48 21.5 48 48v128c0 26.5 -21.5 48 -48 48zM176 192h-80v64c0 35.3 28.7 64 64 64h8
c13.3 0 24 10.7 24 24v48c0 13.3 -10.7 24 -24 24h-8c-88.4 0 -160 -71.6 -160 -160v-240c0 -26.5 21.5 -48 48 -48h128c26.5 0 48 21.5 48 48v128c0 26.5 -21.5 48 -48 48z" />
    <glyph glyph-name="quote-right" unicode="&#xf10e;" 
d="M464 416h-128c-26.5 0 -48 -21.5 -48 -48v-128c0 -26.5 21.5 -48 48 -48h80v-64c0 -35.3 -28.7 -64 -64 -64h-8c-13.3 0 -24 -10.7 -24 -24v-48c0 -13.3 10.7 -24 24 -24h8c88.4 0 160 71.6 160 160v240c0 26.5 -21.5 48 -48 48zM176 416h-128c-26.5 0 -48 -21.5 -48 -48
v-128c0 -26.5 21.5 -48 48 -48h80v-64c0 -35.3 -28.7 -64 -64 -64h-8c-13.3 0 -24 -10.7 -24 -24v-48c0 -13.3 10.7 -24 24 -24h8c88.4 0 160 71.6 160 160v240c0 26.5 -21.5 48 -48 48z" />
    <glyph glyph-name="stars" unicode="&#xf005;" 
d="M259.3 391.2c11.7998 23.8994 45.7002 23.5996 57.4004 0l65.2998 -132.4l146.1 -21.2998c26.2002 -3.7998 36.7002 -36.0996 17.7002 -54.5996l-105.7 -103l25 -145.5c4.5 -26.3008 -23.1992 -45.9004 -46.3994 -33.7002l-130.7 68.7002l-130.7 -68.7002
c-23.2002 -12.2998 -50.8994 7.39941 -46.3994 33.7002l25 145.5l-105.7 103c-19 18.5 -8.5 50.7998 17.7002 54.5996l146.1 21.2998z" />
    <glyph glyph-name="edit" unicode="&#xf0044;" 
d="M417.8 93.5l20 20c3.7998 3.7998 10.2002 1.09961 10.2002 -4.2002v-164.3c0 -26.5 -21.5 -48 -48 -48h-352c-26.5 0 -48 21.5 -48 48v352c0 26.5 21.5 48 48 48h292.3c5.2998 0 8 -6.5 4.2002 -10.2002l-20 -20c-1.09961 -1.09961 -2.7002 -1.7998 -4.2002 -1.7998
h-272.3c-8.7998 0 -16 -7.2002 -16 -16v-352c0 -8.7998 7.2002 -16 16 -16h352c8.7998 0 16 7.2002 16 16v144.3c0 1.60059 0.599609 3.10059 1.7998 4.2002zM563.7 284.7l-312.5 -312.5l-99.9004 -11.1006c-13.3994 -1.5 -24.7002 9.80078 -23.2002 23.2002
l11.1006 99.9004l312.5 312.5c16.3994 16.3994 43 16.3994 59.3994 0l52.6006 -52.6006c16.3994 -16.3994 16.3994 -43 0 -59.3994zM470.1 236.3l-66.6992 66.7002l-233.601 -233.5l-8.2998 -75.0996l75.0996 8.2998zM541.1 321.5l-52.5996 52.5996
c-3.7998 3.80078 -10.2002 4 -14.0996 0l-48.4004 -48.3994l66.7002 -66.7002l48.3994 48.4004c3.90039 3.7998 3.90039 10.1992 0 14.0996z" />
    <glyph glyph-name="file_user" unicode="&#xf65c;" 
d="M369.9 311.02c9 -9 14.0996 -21.2998 14.0996 -33.9893v-332.04c0 -26.4902 -21.5 -47.9902 -47.9902 -47.9902h-288.02c-26.4902 0 -47.9902 21.5 -47.9902 47.9902v415.92c0 26.4902 21.5 47.9902 47.9902 48.0898h204.14c12.6904 0 24.8896 -5.09961 33.8896 -14.0996
zM256.03 376.41v-95.4805h95.4795c-0.700195 2.80078 -2.09961 5.30078 -4.2002 7.40039l-83.8799 83.8799c-2.09961 2.09961 -4.59961 3.5 -7.3994 4.20021zM272 -71.0098v31.1494c0 18.4307 -13.0898 32.8604 -33.25 32.8604c-12.1904 0 -21.25 -6.99023 -46.75 -6.99023
c-25.9502 0 -34.2998 6.99023 -46.75 6.99023c-20.2002 0 -33.25 -14.4805 -33.25 -32.8604v-31.1494h160zM352.01 -55.0098v304.01h-103.979c-13.2998 0 -24 10.6299 -24 23.9297v104.07h-176.04c-8.7998 0 -16 -7.29004 -16 -16.0898v-415.92c0 -8.7998 7.2002 -16 16 -16
h32.0098v31.1494c0 13.8799 4.20996 26.7803 11.4199 37.4805c12.0703 17.9395 32.6602 27.3799 53.8301 27.3799c19.4902 0 24.3398 -6.99023 46.75 -6.99023c22.3896 0 27.29 6.99023 46.75 6.99023c21.1699 0 41.7598 -9.44043 53.8398 -27.3799
c7.2002 -10.71 11.4102 -23.6006 11.4102 -37.4805v-31.1494h32.0098c8.7998 0 16 7.2002 16 16zM112 121c0 44.1904 35.8203 80 80 80s80 -35.8096 80 -80c0 -44.1797 -35.8203 -80 -80 -80s-80 35.8203 -80 80zM240 121c0 26.4697 -21.5303 48 -48 48
s-48 -21.5303 -48 -48s21.5303 -48 48 -48s48 21.5303 48 48z" />
    <glyph glyph-name="cc-paypal" unicode="&#xf1f4;" 
d="M186.3 150.8c0 -12.2002 -9.7002 -21.5 -22 -21.5c-9.2002 0 -16 5.2002 -16 15c0 12.2002 9.5 22 21.7002 22c9.2998 0 16.2998 -5.7002 16.2998 -15.5zM80.5 199.3c11.2998 0 19.7998 -1.5 17.5 -14.8994c-2 -12.7002 -10.5 -14.2002 -21.5 -14.2002l-8.2002 -0.299805
l4.2998 26.6992c0.200195 1.7002 1.7002 2.7002 3.2002 2.7002zM364.5 199.3c8.5 0 18 -0.5 18.0996 -11.0996c0 -15 -9 -18 -22 -18l-8 -0.299805l4.2002 26.6992c0.200195 1.7002 1.40039 2.7002 3.2002 2.7002zM576 329v-352c0 -26.5 -21.5 -48 -48 -48h-480
c-26.5 0 -48 21.5 -48 48v352c0 26.5 21.5 48 48 48h480c26.5 0 48 -21.5 48 -48zM128.3 193.6c0 21 -16.2002 28 -34.7002 28h-40c-2.5 0 -5 -2 -5.19922 -4.69922l-16.4004 -102.101c-0.299805 -2 1.2002 -4 3.2002 -4h19c2.7002 0 5.2002 2.90039 5.5 5.7002l4.5 26.5996
c1 7.2002 13.2002 4.7002 18 4.7002c28.5996 0 46.0996 17 46.0996 45.7998zM212.5 184.8h-19c-3.7998 0 -4 -5.5 -4.2002 -8.2002c-5.7998 8.5 -14.2002 10 -23.7002 10c-24.5 0 -43.1992 -21.5 -43.1992 -45.1992c0 -19.5 12.1992 -32.2002 31.6992 -32.2002
c9 0 20.2002 4.89941 26.5 11.8994c-0.5 -1.5 -1 -4.69922 -1 -6.19922c0 -2.30078 1 -4 3.2002 -4h17.2002c2.7002 0 5 2.89941 5.5 5.69922l10.2002 64.3008c0.299805 1.89941 -1.2002 3.89941 -3.2002 3.8994zM253 86.9004l63.7002 92.5996c0.5 0.5 0.5 1 0.5 1.7002
c0 1.7002 -1.5 3.5 -3.2002 3.5h-19.2002c-1.7002 0 -3.5 -1 -4.5 -2.5l-26.5 -39l-11 37.5c-0.799805 2.2002 -3 4 -5.5 4h-18.7002c-1.69922 0 -3.19922 -1.7998 -3.19922 -3.5c0 -1.2002 19.5 -56.7998 21.1992 -62.1006c-2.69922 -3.7998 -20.5 -28.5996 -20.5 -31.5996
c0 -1.7998 1.5 -3.2002 3.2002 -3.2002h19.2002c1.7998 0.100586 3.5 1.10059 4.50002 2.6006zM412.3 193.6c0 21 -16.2002 28 -34.7002 28h-39.6992c-2.7002 0 -5.2002 -2 -5.5 -4.69922l-16.2002 -102c-0.200195 -2 1.2998 -4 3.2002 -4h20.5c2 0 3.5 1.5 4 3.19922
l4.5 29c1 7.2002 13.1992 4.7002 18 4.7002c28.3994 0 45.8994 17 45.8994 45.7998zM496.5 184.8h-19c-3.7998 0 -4 -5.5 -4.2998 -8.2002c-5.5 8.5 -14 10 -23.7002 10c-24.5 0 -43.2002 -21.5 -43.2002 -45.1992c0 -19.5 12.2002 -32.2002 31.7002 -32.2002
c9.2998 0 20.5 4.89941 26.5 11.8994c-0.299805 -1.5 -1 -4.69922 -1 -6.19922c0 -2.30078 1 -4 3.2002 -4h17.2998c2.7002 0 5 2.89941 5.5 5.69922l10.2002 64.3008c0.299805 1.89941 -1.2002 3.89941 -3.2002 3.8994zM544 218.1c0 2 -1.5 3.5 -3.2002 3.5h-18.5
c-1.5 0 -3 -1.19922 -3.2002 -2.69922l-16.1992 -104l-0.300781 -0.5c0 -1.80078 1.5 -3.5 3.5 -3.5h16.5c2.5 0 5 2.89941 5.2002 5.69922l16.2002 101.2zM454 166.3c9.2998 0 16.2998 -5.7002 16.2002 -15.5c0 -12.2998 -9.7002 -21.5 -21.7002 -21.5
c-9.2002 0 -16.2002 5.2998 -16.2002 15c0 12.2998 9.5 22 21.7002 22z" />
    <glyph glyph-name="paypal" unicode="&#xf1ed;" 
d="M111.4 113.1c-3.5 -19.1992 -17.4004 -108.699 -21.5 -134c-0.300781 -1.7998 -1 -2.5 -3 -2.5h-74.6006c-7.59961 0 -13.0996 6.60059 -12.0996 13.9004l58.5996 371.9c1.5 9.59961 10.1006 16.8994 20 16.8994c152.3 0 165.101 3.7002 204 -11.3994
c60.1006 -23.3008 65.6006 -79.5 44 -140.301c-21.5 -62.5996 -72.5 -89.5 -140.1 -90.2998c-43.4004 -0.700195 -69.5 7 -75.2998 -24.2002zM357.1 257c28.4004 -21.2002 30.3008 -57.7998 23.8008 -92.5996c-16.5 -83.5 -71.9004 -112.301 -142.9 -112.301
c-15 0 -24.7002 2.30078 -29.2998 -19.6992c-15.5 -97.4004 -13.7002 -85.9004 -14.4004 -91.3008c-1.7002 -8.59961 -8.7998 -14.8994 -17.3994 -14.8994h-63.5c-7.10059 0 -11.6006 5.7998 -10.6006 12.8994c0 0 4.5 29.3008 27.1006 169.7
c0.799805 6.10059 4.7998 9.40039 10.8994 9.40039c54 0 164.601 -9.90039 204.5 103.899c3.7002 11.1006 6.7998 22.2002 8.7998 33.6006c0.5 3.09961 1.2002 2.59961 3 1.2998z" />
  </font>
</defs>
</svg>
